[4K记录视频] [国家地理] 玻璃维亚高原和乌龙盐沼(2020) [2160P/MKV/1.70GB]

[复制链接]

2210

主题

2494

帖子

2万

积分

超级版主

Rank: 8Rank: 8

积分
20518
 楼主| 发表于 2021-1-25 12:50:58 | 显示全部楼层 |阅读模式
玻璃维亚高原和乌龙盐沼.mkv_20210120_134615.203.jpg 玻璃维亚高原和乌龙盐沼.mkv_20210120_134653.067.jpg 玻璃维亚高原和乌龙盐沼.mkv_20210120_134714.307.jpg 玻璃维亚高原和乌龙盐沼.mkv_20210120_134729.099.jpg 玻璃维亚高原和乌龙盐沼.mkv_20210120_134741.283.jpg 玻璃维亚高原和乌龙盐沼.mkv_20210120_134748.947.jpg 玻璃维亚高原和乌龙盐沼.mkv_20210120_134804.443.jpg 玻璃维亚高原和乌龙盐沼.mkv_20210120_134818.195.jpg

信息
标题:玻璃维亚高原和乌龙盐沼(2020)
发行年份: 2020
类型: 种类
导演: Milosh Kitchovitch
国家/地区:玻利维亚
持续时间: 00 : 14 : 23

电影简介:
       从智利和玻利维亚的边界出发,经过三天的旅程,穿越令人惊叹的不寻常的玻利维亚Altiplano高原和国家动物保护区安迪娜·爱德华多·阿瓦罗瓦(Andina Eduardo Avaroa),在乌尤尼盐沼(Salar de Uyuni)结尾。


国家/地区:玻利维亚
持续时间: 00 : 14 : 23


General
Complete name                  : [国家地理]\玻璃维亚高原和乌龙盐沼.mkv
Format                         : Matroska
Format version                 : Version 4
File size                      : 1.71 GiB
Duration                       : 14 min 23 s
Overall bit rate               : 17.0 Mb/s
Encoded date                   : UTC 2021-01-15 17:31:31
Writing application            : mkvmerge v52.0.0 ('Secret For The Mad') 64-bit
Writing library                : libebml v1.4.1 + libmatroska v1.6.2 / Lavf58.29.100

Video
ID                             : 1
Format                         : VP9
Codec ID                       : V_VP9
Duration                       : 14 min 23 s
Bit rate                       : 16.9 Mb/s
Width                          : 3 840 pixels
Height                         : 2 160 pixels
Display aspect ratio           : 16:9
Frame rate mode                : Constant
Frame rate                     : 29.970 (30000/1001) FPS
Color space                    : YUV
Bits/(Pixel*Frame)             : 0.068
Stream size                    : 1.70 GiB (99%)
Default                        : Yes
Forced                         : No
Color range                    : Limited
Color primaries                : BT.709
Transfer characteristics       : BT.709
Matrix coefficients            : BT.709

Audio
ID                             : 2
Format                         : AAC LC
Format/Info                    : Advanced Audio Codec Low Complexity
Codec ID                       : A_AAC-2
Duration                       : 14 min 23 s
Bit rate                       : 128 kb/s
Channel(s)                     : 2 channels
Channel layout                 : L R
Sampling rate                  : 44.1 kHz
Frame rate                     : 43.066 FPS (1024 SPF)
Compression mode               : Lossy
Stream size                    : 13.2 MiB (1%)
Default                        : Yes
Forced                         : No



游客,如果您要查看本帖隐藏内容请回复



.

回复

使用道具 举报

2

主题

1219

帖子

3481

积分

4K家园VIP

Rank: 9Rank: 9Rank: 9

积分
3481
发表于 2021-1-25 12:51:06 | 显示全部楼层
嘘,低调。
回复 支持 反对

使用道具 举报

0

主题

2686

帖子

8508

积分

4K家园VIP

Rank: 9Rank: 9Rank: 9

积分
8508
发表于 2021-1-25 13:01:35 | 显示全部楼层
太好啦&萬分感謝版主的無私發佈分享%
回复 支持 反对

使用道具 举报

2

主题

1177

帖子

3549

积分

4K家园VIP

Rank: 9Rank: 9Rank: 9

积分
3549
发表于 2021-1-25 13:20:52 | 显示全部楼层
垃圾
回复 支持 反对

使用道具 举报

0

主题

1175

帖子

3539

积分

4K家园VIP

Rank: 9Rank: 9Rank: 9

积分
3539
发表于 2021-1-26 03:36:20 | 显示全部楼层
4K家园不错,希望这种资源越多越好
回复 支持 反对

使用道具 举报

0

主题

16

帖子

73

积分

新手上路

Rank: 1

积分
73
发表于 2021-1-26 12:31:30 | 显示全部楼层
好东西要下载!
回复 支持 反对

使用道具 举报

0

主题

16

帖子

73

积分

新手上路

Rank: 1

积分
73
发表于 2021-1-26 12:31:39 | 显示全部楼层
好东西要下载!
回复 支持 反对

使用道具 举报

0

主题

2

帖子

9

积分

新手上路

Rank: 1

积分
9
发表于 2021-1-26 12:33:06 | 显示全部楼层
谢谢楼主分享。
回复 支持 反对

使用道具 举报

0

主题

50

帖子

98

积分

新手上路

Rank: 1

积分
98
发表于 2021-1-27 09:24:36 | 显示全部楼层
感谢分享。
回复

使用道具 举报

40

主题

1332

帖子

3814

积分

4K家园VIP

Rank: 9Rank: 9Rank: 9

积分
3814
发表于 2021-1-27 13:16:02 | 显示全部楼层
为了三千积分!
回复 支持 反对

使用道具 举报

您需要登录后才可以回帖 登录 | 立即注册

本版积分规则

精彩图文
Archiver|手机版|TAG|Sitemap|新帖|专题|联系我们:邮箱: 4kjia.com@gmail.com   

4k家园   ©2019