2020 VICTON - 我说的4k [2160P/MP4/367MB]

[复制链接]

2210

主题

2494

帖子

2万

积分

超级版主

Rank: 8Rank: 8

积分
20518
 楼主| 发表于 2021-1-28 11:30:00 | 显示全部楼层 |阅读模式
2020 VICTON - 我说的4k.mp4_20210123_161710.374_meitu_17.jpg 2020 VICTON - 我说的4k.mp4_20210123_161719.958_meitu_18.jpg 2020 VICTON - 我说的4k.mp4_20210123_161730.270_meitu_19.jpg 2020 VICTON - 我说的4k.mp4_20210123_161743.126_meitu_20.jpg

General
Complete name                  : H:\2020 VICTON - 我说的4k.mp4
Format                         : MPEG-4
Format profile                 : Base Media
Codec ID                       : isom (isom/iso2/avc1/mp41)
File size                      : 368 MiB
Duration                       : 3 min 30 s
Overall bit rate               : 14.7 Mb/s
Writing application            : Lavf58.12.100
exvr                           : EX1.8.2(C1.0.9)

Video
ID                             : 1
Format                         : AVC
Format/Info                    : Advanced Video Codec
Format profile                 : High@L5.1
Format settings                : CABAC / 4 Ref Frames
Format settings, CABAC         : Yes
Format settings, Reference fra : 4 frames
Codec ID                       : avc1
Codec ID/Info                  : Advanced Video Coding
Duration                       : 3 min 30 s
Bit rate                       : 14.5 Mb/s
Width                          : 3 840 pixels
Height                         : 2 160 pixels
Display aspect ratio           : 16:9
Frame rate mode                : Constant
Frame rate                     : 23.976 (23976/1000) FPS
Color space                    : YUV
Chroma subsampling             : 4:2:0
Bit depth                      : 8 bits
Scan type                      : Progressive
Bits/(Pixel*Frame)             : 0.073
Stream size                    : 363 MiB (99%)
Color range                    : Limited
Color primaries                : BT.709
Transfer characteristics       : BT.709
Matrix coefficients            : BT.709
Codec configuration box        : avcC

Audio
ID                             : 2
Format                         : AAC LC
Format/Info                    : Advanced Audio Codec Low Complexity
Codec ID                       : mp4a-40-2
Duration                       : 3 min 30 s
Duration_LastFrame             : -1 ms
Bit rate mode                  : Constant
Bit rate                       : 192 kb/s
Channel(s)                     : 2 channels
Channel layout                 : L R
Sampling rate                  : 48.0 kHz
Frame rate                     : 46.875 FPS (1024 SPF)
Compression mode               : Lossy
Stream size                    : 4.81 MiB (1%)
Default                        : Yes
Alternate group                : 1



网盘下载失效不补:链接: https://pan.baidu.com/s/1ZrY258aOQGl_yDeBQrqvtw 提取码:
****此区域为收费内容****    需支付 15 金币后可查看立即购买



.
回复

使用道具 举报

0

主题

1171

帖子

3359

积分

4K家园VIP

Rank: 9Rank: 9Rank: 9

积分
3359
发表于 2021-1-28 11:30:05 | 显示全部楼层
为保住菊花,这个一定得回复!
回复 支持 反对

使用道具 举报

0

主题

2686

帖子

8508

积分

4K家园VIP

Rank: 9Rank: 9Rank: 9

积分
8508
发表于 2021-1-28 17:30:56 | 显示全部楼层
太好啦&萬分感謝版主的無私發佈分享%
回复 支持 反对

使用道具 举报

2

主题

1017

帖子

3069

积分

4K家园VIP

Rank: 9Rank: 9Rank: 9

积分
3069
发表于 2021-1-29 10:13:03 | 显示全部楼层
鼎力支持!!
回复 支持 反对

使用道具 举报

0

主题

1528

帖子

4096

积分

4K家园VIP

Rank: 9Rank: 9Rank: 9

积分
4096
发表于 2021-1-30 22:43:57 来自手机 | 显示全部楼层
出4K版啦,下个看看
回复 支持 反对

使用道具 举报

0

主题

1508

帖子

4072

积分

4K家园VIP

Rank: 9Rank: 9Rank: 9

积分
4072
发表于 2021-1-31 03:35:43 | 显示全部楼层
小白一个 顶一下
回复 支持 反对

使用道具 举报

3

主题

1191

帖子

3591

积分

4K家园VIP

Rank: 9Rank: 9Rank: 9

积分
3591
发表于 2021-2-3 05:05:53 | 显示全部楼层
前排支持下
回复 支持 反对

使用道具 举报

0

主题

94

帖子

213

积分

新手上路

Rank: 1

积分
213
发表于 2021-2-3 16:16:00 | 显示全部楼层
排支持下
回复

使用道具 举报

您需要登录后才可以回帖 登录 | 立即注册

本版积分规则

精彩图文
Archiver|手机版|TAG|Sitemap|新帖|专题|联系我们:邮箱: 4kjia.com@gmail.com   

4k家园   ©2019