[4K记录视频] [国家地理] 冰岛(2019) [2160P/MKV/366MB]

[复制链接]

2210

主题

2494

帖子

2万

积分

超级版主

Rank: 8Rank: 8

积分
20521
 楼主| 发表于 2021-1-25 19:01:56 | 显示全部楼层 |阅读模式
冰岛(2019)WE​​BRip 2160p.mkv_20210123_200313.792.jpg 冰岛(2019)WE​​BRip 2160p.mkv_20210123_200332.593.jpg 冰岛(2019)WE​​BRip 2160p.mkv_20210123_200344.105.jpg 冰岛(2019)WE​​BRip 2160p.mkv_20210123_200353.481.jpg

有关信息
标题:冰岛
发行年: 2019
体裁: 种类
国家/地区:德国
时间: 00 : 03 : 00

导演:保罗·赫特曼

电影介绍:

         在冰岛的十二天。


General
Complete name                  : 冰岛(2019)WE​​BRip 2160p.mkv
Format                         : Matroska
Format version                 : Version 4
File size                      : 367 MiB
Duration                       : 3 min 0 s
Overall bit rate               : 17.1 Mb/s
Encoded date                   : UTC 2020-09-26 16:34:03
Writing application            : mkvmerge v50.0.0 ('Awakenings') 64-bit
Writing library                : libebml v1.4.0 + libmatroska v1.6.2

Video
ID                             : 1
Format                         : AVC
Format/Info                    : Advanced Video Codec
Format profile                 : High@L5.2
Format settings                : CABAC / 5 Ref Frames
Format settings, CABAC         : Yes
Format settings, Reference fra : 5 frames
Codec ID                       : V_MPEG4/ISO/AVC
Duration                       : 3 min 0 s
Bit rate                       : 16.8 Mb/s
Width                          : 3 840 pixels
Height                         : 2 160 pixels
Display aspect ratio           : 16:9
Frame rate mode                : Constant
Frame rate                     : 25.000 FPS
Color space                    : YUV
Chroma subsampling             : 4:2:0
Bit depth                      : 8 bits
Scan type                      : Progressive
Bits/(Pixel*Frame)             : 0.081
Stream size                    : 361 MiB (99%)
Writing library                : x264 core 157 r10 d4099dd
Encoding settings              : cabac=1 / ref=5 / deblock=1:0:0 / analyse=0x3:0x113 / me=hex / subme=8 / psy=1 / psy_rd=1.00:0.00 / mixed_ref=1 / me_range=16 / chroma_me=1 / trellis=2 / 8x8dct=1 / cqm=0 / deadzone=21,11 / fast_pskip=1 / chroma_qp_offset=-2 / threads=48 / lookahead_threads=8 / sliced_threads=0 / nr=0 / decimate=1 / interlaced=0 / bluray_compat=0 / stitchable=1 / constrained_intra=0 / bframes=3 / b_pyramid=2 / b_adapt=2 / b_bias=0 / direct=3 / weightb=1 / open_gop=0 / weightp=2 / keyint=infinite / keyint_min=25 / scenecut=40 / intra_refresh=0 / rc_lookahead=50 / rc=crf / mbtree=1 / crf=20.0 / qcomp=0.60 / qpmin=5 / qpmax=69 / qpstep=4 / vbv_maxrate=24200 / vbv_bufsize=66000 / crf_max=0.0 / nal_hrd=none / filler=0 / ip_ratio=1.40 / aq=1:1.00
Default                        : Yes
Forced                         : No
Color range                    : Limited
Color primaries                : BT.709
Transfer characteristics       : BT.709
Matrix coefficients            : BT.709

Audio
ID                             : 2
Format                         : AAC LC
Format/Info                    : Advanced Audio Codec Low Complexity
Codec ID                       : A_AAC-2
Duration                       : 3 min 0 s
Bit rate                       : 253 kb/s
Channel(s)                     : 2 channels
Channel layout                 : L R
Sampling rate                  : 48.0 kHz
Frame rate                     : 46.875 FPS (1024 SPF)
Compression mode               : Lossy
Stream size                    : 5.44 MiB (1%)
Default                        : Yes
Forced                         : No




游客,如果您要查看本帖隐藏内容请回复




.







回复

使用道具 举报

1

主题

1437

帖子

3913

积分

4K家园VIP

Rank: 9Rank: 9Rank: 9

积分
3913
发表于 2021-1-25 19:02:05 | 显示全部楼层
没看懂
回复 支持 反对

使用道具 举报

0

主题

2698

帖子

8533

积分

4K家园VIP

Rank: 9Rank: 9Rank: 9

积分
8533
发表于 2021-1-25 19:16:23 | 显示全部楼层
太好啦&萬分感謝版主的無私發佈分享%
回复 支持 反对

使用道具 举报

0

主题

19

帖子

127

积分

新手上路

Rank: 1

积分
127
发表于 2021-1-25 19:51:59 | 显示全部楼层
感谢分享,下载下来看看
回复 支持 反对

使用道具 举报

0

主题

2

帖子

13

积分

新手上路

Rank: 1

积分
13
发表于 2021-1-25 22:47:59 | 显示全部楼层
感谢楼主分享!!!!!!!!
回复 支持 反对

使用道具 举报

1

主题

1153

帖子

3275

积分

4K家园VIP

Rank: 9Rank: 9Rank: 9

积分
3275
发表于 2021-1-26 03:49:36 | 显示全部楼层
4K家园资源最近貌似越来越多了
回复 支持 反对

使用道具 举报

2

主题

1209

帖子

3485

积分

4K家园VIP

Rank: 9Rank: 9Rank: 9

积分
3485
发表于 2021-1-26 05:40:51 | 显示全部楼层
站位支持
回复 支持 反对

使用道具 举报

0

主题

10

帖子

36

积分

新手上路

Rank: 1

积分
36
发表于 2021-1-26 11:30:18 | 显示全部楼层
感谢楼主分享好风景
回复 支持 反对

使用道具 举报

39

主题

1348

帖子

3836

积分

4K家园VIP

Rank: 9Rank: 9Rank: 9

积分
3836
发表于 2021-1-27 06:24:56 | 显示全部楼层
高手啊
回复 支持 反对

使用道具 举报

49

主题

1333

帖子

3859

积分

4K家园VIP

Rank: 9Rank: 9Rank: 9

积分
3859
发表于 2021-1-27 07:43:04 来自手机 | 显示全部楼层
这么强,支持楼主,佩服
回复 支持 反对

使用道具 举报

您需要登录后才可以回帖 登录 | 立即注册

本版积分规则

精彩图文
Archiver|手机版|TAG|Sitemap|新帖|专题|联系我们:邮箱: 4kjia.com@gmail.com   

4k家园   ©2019