[4K记录视频] [国家地理] 塞舌尔(2020)[2160P/MKV/2.38GB]

[复制链接]

2215

主题

2501

帖子

2万

积分

超级版主

Rank: 8Rank: 8

积分
20603
 楼主| 发表于 2021-1-28 19:37:50 | 显示全部楼层 |阅读模式
本帖最后由 叽里呱啦 于 2021-1-28 19:44 编辑

塞舌尔(2020)WEBRip 2160p.mkv_20210123_201922.462.jpg 塞舌尔(2020)WEBRip 2160p.mkv_20210123_201931.616.jpg 塞舌尔(2020)WEBRip 2160p.mkv_20210123_201941.672.jpg 塞舌尔(2020)WEBRip 2160p.mkv_20210123_201955.488.jpg

有关信息
标题:塞舌尔
国家/地区:塞舌尔
时间: 00 : 19 : 23
发行年: 2020
类型: 种类
导演: Milosh Kitchovitch

关于电影:
        塞舌尔群岛最美丽的四个岛屿:普拉兰岛,居里岛,拉迪格岛,马埃岛。


General
Complete name                  : 塞舌尔(2020)WEBRip 2160p.mkv
Format                         : Matroska
Format version                 : Version 4
File size                      : 2.38 GiB
Duration                       : 19 min 23 s
Overall bit rate               : 17.6 Mb/s
Encoded date                   : UTC 2021-01-20 17:35:29
Writing application            : mkvmerge v52.0.0 ('Secret For The Mad') 64-bit
Writing library                : libebml v1.4.1 + libmatroska v1.6.2 / Lavf58.29.100

Video
ID                             : 1
Format                         : VP9
Codec ID                       : V_VP9
Duration                       : 19 min 23 s
Bit rate                       : 17.5 Mb/s
Width                          : 3 840 pixels
Height                         : 2 160 pixels
Display aspect ratio           : 16:9
Frame rate mode                : Constant
Frame rate                     : 29.970 (30000/1001) FPS
Color space                    : YUV
Bits/(Pixel*Frame)             : 0.070
Stream size                    : 2.36 GiB (99%)
Default                        : Yes
Forced                         : No
Color range                    : Limited
Color primaries                : BT.709
Transfer characteristics       : BT.709
Matrix coefficients            : BT.709

Audio
ID                             : 2
Format                         : Opus
Codec ID                       : A_OPUS
Duration                       : 19 min 23 s
Bit rate                       : 139 kb/s
Channel(s)                     : 2 channels
Channel layout                 : L R
Sampling rate                  : 48.0 kHz
Frame rate                     : 50.001 FPS (960 SPF)
Compression mode               : Lossy
Stream size                    : 19.2 MiB (1%)
Default                        : Yes
Forced                         : No



游客,如果您要查看本帖隐藏内容请回复



.

回复

使用道具 举报

0

主题

1180

帖子

3550

积分

4K家园VIP

Rank: 9Rank: 9Rank: 9

积分
3550
发表于 2021-1-28 19:37:55 | 显示全部楼层
报告!别开枪,我就是路过来看看的。。。
回复 支持 反对

使用道具 举报

0

主题

2875

帖子

8801

积分

4K家园VIP

Rank: 9Rank: 9Rank: 9

积分
8801
发表于 2021-1-28 19:43:39 | 显示全部楼层
太好啦&萬分感謝版主的無私發佈分享%
回复 支持 反对

使用道具 举报

0

主题

2

帖子

12

积分

新手上路

Rank: 1

积分
12
发表于 2021-1-29 09:00:46 | 显示全部楼层
楼猪辛苦了,支持一下分享好资源
回复 支持 反对

使用道具 举报

0

主题

26

帖子

126

积分

新手上路

Rank: 1

积分
126
发表于 2021-1-31 11:49:34 | 显示全部楼层
谢谢分享





1
回复

使用道具 举报

0

主题

330

帖子

1138

积分

注册会员

Rank: 2

积分
1138
发表于 2021-1-31 12:01:12 | 显示全部楼层
感谢楼主分享
回复 支持 反对

使用道具 举报

0

主题

5

帖子

34

积分

新手上路

Rank: 1

积分
34
发表于 2021-1-31 15:15:28 | 显示全部楼层
楼猪辛苦了,支持一下分享好资源
回复 支持 反对

使用道具 举报

0

主题

3

帖子

12

积分

新手上路

Rank: 1

积分
12
发表于 2021-1-31 21:02:35 来自手机 | 显示全部楼层
好东西要分享我
回复 支持 反对

使用道具 举报

匿名  发表于 2021-1-31 21:17:45
好东西要分享
回复 支持 反对

使用道具

匿名  发表于 2021-1-31 21:18:36
我想要这片子
回复 支持 反对

使用道具

您需要登录后才可以回帖 登录 | 立即注册

本版积分规则

精彩图文
Archiver|手机版|TAG|Sitemap|新帖|专题|联系我们:邮箱: 4kjia.com@gmail.com   

4k家园   ©2019