[4K记录视频] [国家地理] 千岛群岛/1000群岛(2016)[2160P/MKV/889MB]

[复制链接]

2210

主题

2494

帖子

2万

积分

超级版主

Rank: 8Rank: 8

积分
20521
 楼主| 发表于 2021-2-1 20:04:03 | 显示全部楼层 |阅读模式
千岛 1000岛(2016)WEBRip 2160p.mkv_20210123_202341.788.jpg 千岛 1000岛(2016)WEBRip 2160p.mkv_20210123_202349.305.jpg 千岛 1000岛(2016)WEBRip 2160p.mkv_20210123_202353.327.jpg 千岛 1000岛(2016)WEBRip 2160p.mkv_20210123_202402.856.jpg 千岛 1000岛(2016)WEBRip 2160p.mkv_20210123_202408.400.jpg 千岛 1000岛(2016)WEBRip 2160p.mkv_20210123_202414.792.jpg

有关信息
标题:千岛群岛
原作: 1000岛
国家/地区:美国
时长: 00 : 07 : 15

发行年份: 2016
导演:米洛什·基切维奇

关于电影:
千岛群岛是圣劳伦斯河上超过1800个岛屿,沿美国(纽约州)之间的边界和加拿大(安大略省)... 这个风景如画的地区曾是19世纪后期精英阶层的天堂,如今已成为受欢迎的旅游胜地。在该地区众多美丽的岛屿豪宅中,最著名的是位于哈特岛的博尔德城堡。


General
Complete name                  : 千岛 1000岛(2016)WEBRip 2160p.mkv
Format                         : Matroska
Format version                 : Version 4
File size                      : 889 MiB
Duration                       : 7 min 15 s
Overall bit rate               : 17.1 Mb/s
Encoded date                   : UTC 2021-01-20 16:28:59
Writing application            : mkvmerge v52.0.0 ('Secret For The Mad') 64-bit
Writing library                : libebml v1.4.1 + libmatroska v1.6.2 / Lavf58.29.100

Video
ID                             : 1
Format                         : VP9
Codec ID                       : V_VP9
Duration                       : 7 min 15 s
Bit rate                       : 17.0 Mb/s
Width                          : 3 840 pixels
Height                         : 2 160 pixels
Display aspect ratio           : 16:9
Frame rate mode                : Constant
Frame rate                     : 29.970 (30000/1001) FPS
Color space                    : YUV
Bits/(Pixel*Frame)             : 0.068
Stream size                    : 882 MiB (99%)
Default                        : Yes
Forced                         : No
Color range                    : Limited
Color primaries                : BT.709
Transfer characteristics       : BT.709
Matrix coefficients            : BT.709

Audio
ID                             : 2
Format                         : Opus
Codec ID                       : A_OPUS
Duration                       : 7 min 15 s
Bit rate                       : 142 kb/s
Channel(s)                     : 2 channels
Channel layout                 : L R
Sampling rate                  : 48.0 kHz
Frame rate                     : 50.002 FPS (960 SPF)
Compression mode               : Lossy
Stream size                    : 7.36 MiB (1%)
Default                        : Yes
Forced                         : No



游客,如果您要查看本帖隐藏内容请回复



.


回复

使用道具 举报

2

主题

1000

帖子

2966

积分

4K家园VIP

Rank: 9Rank: 9Rank: 9

积分
2966
发表于 2021-2-1 20:04:08 | 显示全部楼层
专业抢沙发的!哈哈
回复 支持 反对

使用道具 举报

0

主题

2698

帖子

8533

积分

4K家园VIP

Rank: 9Rank: 9Rank: 9

积分
8533
发表于 2021-2-1 20:45:46 | 显示全部楼层
太好啦&萬分感謝版主的無私發佈分享%
回复 支持 反对

使用道具 举报

1

主题

1278

帖子

3666

积分

4K家园VIP

Rank: 9Rank: 9Rank: 9

积分
3666
发表于 2021-2-2 00:46:45 来自手机 | 显示全部楼层
1v1飘过
回复 支持 反对

使用道具 举报

1

主题

1206

帖子

3406

积分

4K家园VIP

Rank: 9Rank: 9Rank: 9

积分
3406
发表于 2021-2-3 15:28:19 来自手机 | 显示全部楼层
求沙发
回复 支持 反对

使用道具 举报

2

主题

1178

帖子

3556

积分

4K家园VIP

Rank: 9Rank: 9Rank: 9

积分
3556
发表于 2021-2-3 21:08:36 来自手机 | 显示全部楼层
这么强,支持楼主,佩服
回复 支持 反对

使用道具 举报

3

主题

1526

帖子

4210

积分

4K家园VIP

Rank: 9Rank: 9Rank: 9

积分
4210
发表于 2021-2-4 23:57:33 | 显示全部楼层
占坑编辑ing
回复 支持 反对

使用道具 举报

0

主题

36

帖子

140

积分

新手上路

Rank: 1

积分
140
发表于 2021-2-5 12:41:17 | 显示全部楼层
好东西   分享
回复 支持 反对

使用道具 举报

0

主题

2

帖子

9

积分

新手上路

Rank: 1

积分
9
发表于 2021-2-5 13:37:52 | 显示全部楼层
下载,看看主要是试试4K拼接屏
回复 支持 反对

使用道具 举报

您需要登录后才可以回帖 登录 | 立即注册

本版积分规则

精彩图文
Archiver|手机版|TAG|Sitemap|新帖|专题|联系我们:邮箱: 4kjia.com@gmail.com   

4k家园   ©2019