[4K记录视频] [国家地理] 迈阿密(2020)[2160P/MKV/448MB]

[复制链接]

2210

主题

2494

帖子

2万

积分

超级版主

Rank: 8Rank: 8

积分
20521
 楼主| 发表于 2021-2-3 12:56:38 | 显示全部楼层 |阅读模式
迈阿密(2020)WEBRip 2160p.mkv_20210123_203007.392.jpg 迈阿密(2020)WEBRip 2160p.mkv_20210123_203018.960.jpg 迈阿密(2020)WEBRip 2160p.mkv_20210123_203028.248.jpg 迈阿密(2020)WEBRip 2160p.mkv_20210123_203033.415.jpg


有关信息
标题:迈阿密
发行年代: 2020
类型: 风景
国家/地区:美国
时间: 00:04 : 20

导演: Drone Snap

关于电影:

       您可以看到所有著名的地标,例如迈阿密海滩,蓝钻公寓,海洋大道以及所有美丽的桥梁,海滩,岛屿和地平线!


General
Complete name                  : 迈阿密(2020)WEBRip 2160p.mkv
Format                         : Matroska
Format version                 : Version 4
File size                      : 489 MiB
Duration                       : 4 min 20 s
Overall bit rate               : 15.8 Mb/s
Encoded date                   : UTC 2021-01-20 18:41:47
Writing application            : mkvmerge v52.0.0 ('Secret For The Mad') 64-bit
Writing library                : libebml v1.4.1 + libmatroska v1.6.2 / Lavf58.29.100

Video
ID                             : 1
Format                         : VP9
Codec ID                       : V_VP9
Duration                       : 4 min 20 s
Bit rate                       : 15.6 Mb/s
Width                          : 3 840 pixels
Height                         : 2 160 pixels
Display aspect ratio           : 16:9
Frame rate mode                : Constant
Frame rate                     : 23.976 (24000/1001) FPS
Color space                    : YUV
Bits/(Pixel*Frame)             : 0.079
Stream size                    : 485 MiB (99%)
Default                        : Yes
Forced                         : No
Color range                    : Limited
Color primaries                : BT.709
Transfer characteristics       : BT.709
Matrix coefficients            : BT.709

Audio
ID                             : 2
Format                         : Opus
Codec ID                       : A_OPUS
Duration                       : 4 min 20 s
Bit rate                       : 131 kb/s
Channel(s)                     : 2 channels
Channel layout                 : L R
Sampling rate                  : 48.0 kHz
Frame rate                     : 50.003 FPS (960 SPF)
Compression mode               : Lossy
Stream size                    : 4.07 MiB (1%)
Default                        : Yes
Forced                         : No



游客,如果您要查看本帖隐藏内容请回复




.
回复

使用道具 举报

45

主题

1346

帖子

3880

积分

4K家园VIP

Rank: 9Rank: 9Rank: 9

积分
3880
发表于 2021-2-3 12:56:46 | 显示全部楼层
我也来顶一下..
回复 支持 反对

使用道具 举报

2

主题

155

帖子

2555

积分

注册会员

Rank: 2

积分
2555
发表于 2021-2-3 13:55:52 | 显示全部楼层
美仑美奂        
回复 支持 反对

使用道具 举报

0

主题

2698

帖子

8533

积分

4K家园VIP

Rank: 9Rank: 9Rank: 9

积分
8533
发表于 2021-2-3 19:39:25 | 显示全部楼层
太好啦&萬分感謝版主的無私發佈分享%
回复 支持 反对

使用道具 举报

0

主题

30

帖子

162

积分

4K家园VIP

Rank: 9Rank: 9Rank: 9

积分
162
发表于 2021-2-3 21:10:16 | 显示全部楼层
多谢楼主分享资源.
回复 支持 反对

使用道具 举报

0

主题

4

帖子

27

积分

新手上路

Rank: 1

积分
27
发表于 2021-2-4 16:12:56 | 显示全部楼层
回复

使用道具 举报

0

主题

1592

帖子

4322

积分

中级会员

Rank: 4

积分
4322
发表于 2021-2-5 01:41:58 | 显示全部楼层
不错 支持下
回复 支持 反对

使用道具 举报

1

主题

1267

帖子

3643

积分

4K家园VIP

Rank: 9Rank: 9Rank: 9

积分
3643
发表于 2021-2-7 11:47:47 | 显示全部楼层
4K电影下个试试
回复 支持 反对

使用道具 举报

0

主题

319

帖子

1101

积分

注册会员

Rank: 2

积分
1101
发表于 2021-2-8 14:19:33 | 显示全部楼层
感谢楼主分享
回复 支持 反对

使用道具 举报

54

主题

1310

帖子

3774

积分

4K家园VIP

Rank: 9Rank: 9Rank: 9

积分
3774
发表于 2021-2-10 19:05:24 | 显示全部楼层
沙发位出租,
回复 支持 反对

使用道具 举报

您需要登录后才可以回帖 登录 | 立即注册

本版积分规则

精彩图文
Archiver|手机版|TAG|Sitemap|新帖|专题|联系我们:邮箱: 4kjia.com@gmail.com   

4k家园   ©2019