[4K记录视频] [国家地理] 马洛卡岛(2020)[2160P/MKV/462MB]

[复制链接]

2210

主题

2494

帖子

2万

积分

超级版主

Rank: 8Rank: 8

积分
20509
 楼主| 发表于 2021-2-5 21:06:21 | 显示全部楼层 |阅读模式

马洛卡岛(2020)WEBRip 2160p.mkv_20210123_203437.607.jpg 马洛卡岛(2020)WEBRip 2160p.mkv_20210123_203456.975.jpg 马洛卡岛(2020)WEBRip 2160p.mkv_20210123_203521.359.jpg 马洛卡岛(2020)WEBRip 2160p.mkv_20210123_203546.879.jpg

有关信息
标题:马略卡岛
原始电影:马略卡岛
发行年份: 2020
国家/地区:西班牙
时长: 00:04 : 40

类型: 种类
导演:尼古拉斯·克里斯特尔

关于电影:

      马略卡岛是地中海中的西班牙巴利阿里群岛之一。该岛以其海滨度假胜地,僻静的海湾,石灰岩山脉以及罗马和摩尔人的建筑古迹而闻名。


General
Complete name                  : 马洛卡岛(2020)WEBRip 2160p.mkv
Format                         : Matroska
Format version                 : Version 4
File size                      : 462 MiB
Duration                       : 4 min 40 s
Overall bit rate               : 13.8 Mb/s
Encoded date                   : UTC 2021-01-20 21:12:03
Writing application            : mkvmerge v52.0.0 ('Secret For The Mad') 64-bit
Writing library                : libebml v1.4.1 + libmatroska v1.6.2

Video
ID                             : 1
Format                         : AVC
Format/Info                    : Advanced Video Codec
Format profile                 : Main@L5.1
Format settings                : CABAC / 1 Ref Frames
Format settings, CABAC         : Yes
Format settings, Reference fra : 1 frame
Codec ID                       : V_MPEG4/ISO/AVC
Duration                       : 4 min 40 s
Bit rate mode                  : Constant
Bit rate                       : 13.9 Mb/s
Width                          : 3 840 pixels
Height                         : 2 160 pixels
Display aspect ratio           : 16:9
Frame rate mode                : Constant
Frame rate                     : 25.000 FPS
Color space                    : YUV
Chroma subsampling             : 4:2:0
Bit depth                      : 8 bits
Scan type                      : Progressive
Bits/(Pixel*Frame)             : 0.067
Stream size                    : 458 MiB (99%)
Language                       : English
Default                        : Yes
Forced                         : No

Audio
ID                             : 2
Format                         : AAC LC
Format/Info                    : Advanced Audio Codec Low Complexity
Codec ID                       : A_AAC-2
Duration                       : 4 min 40 s
Bit rate                       : 129 kb/s
Channel(s)                     : 2 channels
Channel layout                 : L R
Sampling rate                  : 44.1 kHz
Frame rate                     : 43.066 FPS (1024 SPF)
Compression mode               : Lossy
Stream size                    : 4.29 MiB (1%)
Language                       : English
Default                        : Yes
Forced                         : No



游客,如果您要查看本帖隐藏内容请回复




.
回复

使用道具 举报

0

主题

1182

帖子

3558

积分

4K家园VIP

Rank: 9Rank: 9Rank: 9

积分
3558
发表于 2021-2-5 21:06:28 | 显示全部楼层
沙发位出租,
回复 支持 反对

使用道具 举报

0

主题

2608

帖子

8395

积分

4K家园VIP

Rank: 9Rank: 9Rank: 9

积分
8395
发表于 2021-2-5 21:11:12 | 显示全部楼层
太好啦&萬分感謝版主的無私發佈分享%
回复 支持 反对

使用道具 举报

0

主题

8

帖子

322

积分

4K家园VIP

Rank: 9Rank: 9Rank: 9

积分
322
发表于 2021-2-5 21:20:49 | 显示全部楼层
感谢感谢沙发出租
回复 支持 反对

使用道具 举报

0

主题

5

帖子

22

积分

新手上路

Rank: 1

积分
22
发表于 2021-2-5 21:49:44 | 显示全部楼层
感谢分享
回复

使用道具 举报

1

主题

1562

帖子

4294

积分

4K家园VIP

Rank: 9Rank: 9Rank: 9

积分
4294
发表于 2021-2-6 03:22:00 来自手机 | 显示全部楼层
路过
回复 支持 反对

使用道具 举报

0

主题

1

帖子

10

积分

新手上路

Rank: 1

积分
10
发表于 2021-2-6 15:38:44 | 显示全部楼层
谢谢版主
回复

使用道具 举报

0

主题

1

帖子

10

积分

新手上路

Rank: 1

积分
10
发表于 2021-2-6 22:12:39 | 显示全部楼层
FEFEFFEFEFE
回复 支持 反对

使用道具 举报

37

主题

1351

帖子

3827

积分

4K家园VIP

Rank: 9Rank: 9Rank: 9

积分
3827
发表于 2021-2-8 22:20:10 来自手机 | 显示全部楼层
围观 围观 沙发在哪里!!!
回复 支持 反对

使用道具 举报

56

主题

1301

帖子

3737

积分

4K家园VIP

Rank: 9Rank: 9Rank: 9

积分
3737
发表于 2021-2-9 01:32:28 | 显示全部楼层
学习下
回复 支持 反对

使用道具 举报

您需要登录后才可以回帖 登录 | 立即注册

本版积分规则

精彩图文
Archiver|手机版|TAG|Sitemap|新帖|专题|联系我们:邮箱: 4kjia.com@gmail.com   

4k家园   ©2019