[4K记录视频] [国家地理] 鹿皮峡谷(2020)[2160P/MKV/1.61GB]

[复制链接]

2212

主题

2497

帖子

2万

积分

超级版主

Rank: 8Rank: 8

积分
20561
 楼主| 发表于 2021-1-29 10:35:40 | 显示全部楼层 |阅读模式

鹿皮峡谷(2020)WEBRip 2160p.mkv_20210123_204032.919.jpg 鹿皮峡谷(2020)WEBRip 2160p.mkv_20210123_204048.791.jpg 鹿皮峡谷(2020)WEBRip 2160p.mkv_20210123_204054.575.jpg 鹿皮峡谷(2020)WEBRip 2160p.mkv_20210123_204102.446.jpg
有关电影的信息
标题: Buckskin Gulch
原标题: Buckskin Gulch
发行: 2020
国家/地区: USA
时长: 00 : 13 : 34

类型: 物种
导演: Milosh Kitchovitch


电影简介:

       犹他州的Buckskin Gulch是美国乃至世界上最长,最深的老虎机峡谷,也是最令人惊叹和最著名的老虎机峡谷之一。这场激动人心的步行探险之旅将探索世界上最长,最深的峡谷之一。



General
Complete name                  : 鹿皮峡谷(2020)WEBRip 2160p.mkv
Format                         : Matroska
Format version                 : Version 4
File size                      : 1.61 GiB
Duration                       : 13 min 34 s
Overall bit rate               : 17.0 Mb/s
Encoded date                   : UTC 2021-01-20 17:19:01
Writing application            : mkvmerge v52.0.0 ('Secret For The Mad') 64-bit
Writing library                : libebml v1.4.1 + libmatroska v1.6.2 / Lavf58.29.100

Video
ID                             : 1
Format                         : VP9
Codec ID                       : V_VP9
Duration                       : 13 min 34 s
Bit rate                       : 16.8 Mb/s
Width                          : 3 840 pixels
Height                         : 2 160 pixels
Display aspect ratio           : 16:9
Frame rate mode                : Constant
Frame rate                     : 29.970 (30000/1001) FPS
Color space                    : YUV
Bits/(Pixel*Frame)             : 0.068
Stream size                    : 1.60 GiB (99%)
Default                        : Yes
Forced                         : No
Color range                    : Limited
Color primaries                : BT.709
Transfer characteristics       : BT.709
Matrix coefficients            : BT.709

Audio
ID                             : 2
Format                         : Opus
Codec ID                       : A_OPUS
Duration                       : 13 min 34 s
Bit rate                       : 138 kb/s
Channel(s)                     : 2 channels
Channel layout                 : L R
Sampling rate                  : 48.0 kHz
Frame rate                     : 50.001 FPS (960 SPF)
Compression mode               : Lossy
Stream size                    : 13.4 MiB (1%)
Default                        : Yes
Forced                         : No



游客,如果您要查看本帖隐藏内容请回复


.

回复

使用道具 举报

1

主题

1039

帖子

3139

积分

4K家园VIP

Rank: 9Rank: 9Rank: 9

积分
3139
发表于 2021-1-29 10:35:48 | 显示全部楼层
路过的帮顶
回复 支持 反对

使用道具 举报

0

主题

2813

帖子

8711

积分

4K家园VIP

Rank: 9Rank: 9Rank: 9

积分
8711
发表于 2021-1-29 12:14:16 | 显示全部楼层
太好啦&萬分感謝版主的無私發佈分享%
回复 支持 反对

使用道具 举报

0

主题

1014

帖子

3056

积分

4K家园VIP

Rank: 9Rank: 9Rank: 9

积分
3056
发表于 2021-1-29 18:29:21 | 显示全部楼层
好帖必须得顶起
回复 支持 反对

使用道具 举报

0

主题

1187

帖子

3573

积分

4K家园VIP

Rank: 9Rank: 9Rank: 9

积分
3573
发表于 2021-1-29 19:50:51 | 显示全部楼层
感谢楼主的分享,还是阔以滴
回复 支持 反对

使用道具 举报

0

主题

2

帖子

13

积分

新手上路

Rank: 1

积分
13
发表于 2021-1-29 22:10:28 | 显示全部楼层
谢谢
回复

使用道具 举报

0

主题

1089

帖子

3281

积分

4K家园VIP

Rank: 9Rank: 9Rank: 9

积分
3281
发表于 2021-1-30 10:33:07 | 显示全部楼层
LZ敢整点更有创意的不?兄弟们等着围观捏~
回复 支持 反对

使用道具 举报

1

主题

1167

帖子

3517

积分

4K家园VIP

Rank: 9Rank: 9Rank: 9

积分
3517
发表于 2021-1-30 11:23:05 | 显示全部楼层
我擦!我要沙发!
回复 支持 反对

使用道具 举报

0

主题

324

帖子

1119

积分

注册会员

Rank: 2

积分
1119
发表于 2021-1-31 21:41:43 | 显示全部楼层
谢谢楼主分享
回复 支持 反对

使用道具 举报

0

主题

26

帖子

97

积分

新手上路

Rank: 1

积分
97
发表于 2021-2-1 14:06:54 | 显示全部楼层
llllllllllllll
回复 支持 反对

使用道具 举报

您需要登录后才可以回帖 登录 | 立即注册

本版积分规则

精彩图文
Archiver|手机版|TAG|Sitemap|新帖|专题|联系我们:邮箱: 4kjia.com@gmail.com   

4k家园   ©2019