[4K记录视频] [国家地理] 德国-汉堡(2020)[2160P/MKV/977MB]

[复制链接]

2210

主题

2494

帖子

2万

积分

超级版主

Rank: 8Rank: 8

积分
20521
 楼主| 发表于 2021-2-7 11:11:11 | 显示全部楼层 |阅读模式
本帖最后由 叽里呱啦 于 2021-2-7 11:11 编辑

汉堡(2020)WEBRip 2160p.mkv_20210123_204532.686.jpg 汉堡(2020)WEBRip 2160p.mkv_20210123_204546.751.jpg 汉堡(2020)WEBRip 2160p.mkv_20210123_204559.847.jpg 汉堡(2020)WEBRip 2160p.mkv_20210123_204624.991.jpg

有关信息
标题:汉堡
发行年份: 2020
地区...国家:德国
时长: 00 : 08 : 04

类型: 查看
导演: Drone Snap

关于电影:

       在此视频中,您可以看到所有著名景点,如易北爱乐乐团,圣迈克尔教堂,圣保利码头,Binnenalster,大西洋酒店,Speicherstadt,市政厅,Heinrich Hertz塔),港口城市,明镜总部,中央车站,柯布兰德大桥,汉堡港及其他

General
Complete name                  : 汉堡(2020)WEBRip 2160p.mkv
Format                         : Matroska
Format version                 : Version 4
File size                      : 977 MiB
Duration                       : 8 min 4 s
Overall bit rate               : 16.9 Mb/s
Encoded date                   : UTC 2021-01-20 18:10:03
Writing application            : mkvmerge v52.0.0 ('Secret For The Mad') 64-bit
Writing library                : libebml v1.4.1 + libmatroska v1.6.2 / Lavf58.29.100

Video
ID                             : 1
Format                         : VP9
Codec ID                       : V_VP9
Duration                       : 8 min 4 s
Bit rate                       : 16.8 Mb/s
Width                          : 3 840 pixels
Height                         : 2 160 pixels
Display aspect ratio           : 16:9
Frame rate mode                : Constant
Frame rate                     : 29.970 (30000/1001) FPS
Color space                    : YUV
Bits/(Pixel*Frame)             : 0.068
Stream size                    : 970 MiB (99%)
Default                        : Yes
Forced                         : No
Color range                    : Limited
Color primaries                : BT.709
Transfer characteristics       : BT.709
Matrix coefficients            : BT.709

Audio
ID                             : 2
Format                         : Opus
Codec ID                       : A_OPUS
Duration                       : 8 min 4 s
Bit rate                       : 131 kb/s
Channel(s)                     : 2 channels
Channel layout                 : L R
Sampling rate                  : 48.0 kHz
Frame rate                     : 50.001 FPS (960 SPF)
Compression mode               : Lossy
Stream size                    : 7.55 MiB (1%)
Default                        : Yes
Forced                         : No




游客,如果您要查看本帖隐藏内容请回复



.

回复

使用道具 举报

2

主题

1175

帖子

3547

积分

4K家园VIP

Rank: 9Rank: 9Rank: 9

积分
3547
发表于 2021-2-7 11:11:16 | 显示全部楼层
打酱油的人拉,回复下赚取积分
回复 支持 反对

使用道具 举报

0

主题

2698

帖子

8533

积分

4K家园VIP

Rank: 9Rank: 9Rank: 9

积分
8533
发表于 2021-2-7 11:16:51 | 显示全部楼层
德国 汉堡4k
回复 支持 反对

使用道具 举报

0

主题

1

帖子

6

积分

新手上路

Rank: 1

积分
6
发表于 2021-2-7 15:20:48 | 显示全部楼层
感谢分享
回复

使用道具 举报

1

主题

1492

帖子

4132

积分

4K家园VIP

Rank: 9Rank: 9Rank: 9

积分
4132
发表于 2021-2-7 15:40:18 来自手机 | 显示全部楼层
前排,哇咔咔
回复 支持 反对

使用道具 举报

0

主题

2

帖子

13

积分

新手上路

Rank: 1

积分
13
发表于 2021-2-7 16:54:05 | 显示全部楼层
谢谢楼主分享
回复 支持 反对

使用道具 举报

0

主题

11

帖子

8506

积分

金牌会员

Rank: 6Rank: 6

积分
8506
发表于 2021-2-7 21:08:08 | 显示全部楼层
谢谢楼主分享资源
回复 支持 反对

使用道具 举报

0

主题

7

帖子

30

积分

新手上路

Rank: 1

积分
30
发表于 2021-2-8 02:05:31 | 显示全部楼层
感谢分享!!!!!!!1
回复

使用道具 举报

0

主题

7

帖子

30

积分

新手上路

Rank: 1

积分
30
发表于 2021-2-8 02:06:04 | 显示全部楼层
感谢分享!!!!!!!
回复

使用道具 举报

31

主题

1388

帖子

3888

积分

4K家园VIP

Rank: 9Rank: 9Rank: 9

积分
3888
发表于 2021-2-8 03:01:47 | 显示全部楼层
看帖要回,回帖才健康,在踩踩,楼主辛苦了!
回复 支持 反对

使用道具 举报

您需要登录后才可以回帖 登录 | 立即注册

本版积分规则

精彩图文
Archiver|手机版|TAG|Sitemap|新帖|专题|联系我们:邮箱: 4kjia.com@gmail.com   

4k家园   ©2019