[4K记录视频] [国家地理] 大岛(Big Island)(2019)[2160P/MKV/1.89GB]

[复制链接]

2209

主题

2493

帖子

2万

积分

超级版主

Rank: 8Rank: 8

积分
20498
 楼主| 发表于 2021-1-31 21:20:40 | 显示全部楼层 |阅读模式

大岛(2019)WE​​BRip 2160p.mkv_20210123_205010.494.jpg 大岛(2019)WE​​BRip 2160p.mkv_20210123_205024.063.jpg 大岛(2019)WE​​BRip 2160p.mkv_20210123_205033.535.jpg 大岛(2019)WE​​BRip 2160p.mkv_20210123_205054.734.jpg 大岛(2019)WE​​BRip 2160p.mkv_20210123_205105.630.jpg 大岛(2019)WE​​BRip 2160p.mkv_20210123_205110.926.jpg

有关信息

标题:大岛(Big Island)
发行年份: 2019
国家/地区:美国、
时长: 00 : 15 : 39

体裁: 种类
导演:米洛什·基奇维奇(Milosh Kitchovitch)

关于电影:

      大岛(Big Island)是夏威夷最大,也是最多样化和最美丽的岛屿之一。

General
Complete name                  : 大岛(2019)WE​​BRip 2160p.mkv
Format                         : Matroska
Format version                 : Version 4
File size                      : 1.90 GiB
Duration                       : 15 min 39 s
Overall bit rate               : 17.4 Mb/s
Encoded date                   : UTC 2021-01-20 17:02:56
Writing application            : mkvmerge v52.0.0 ('Secret For The Mad') 64-bit
Writing library                : libebml v1.4.1 + libmatroska v1.6.2 / Lavf58.29.100

Video
ID                             : 1
Format                         : VP9
Codec ID                       : V_VP9
Duration                       : 15 min 39 s
Bit rate                       : 17.2 Mb/s
Width                          : 3 840 pixels
Height                         : 2 160 pixels
Display aspect ratio           : 16:9
Frame rate mode                : Constant
Frame rate                     : 29.970 (30000/1001) FPS
Color space                    : YUV
Bits/(Pixel*Frame)             : 0.069
Stream size                    : 1.88 GiB (99%)
Default                        : Yes
Forced                         : No
Color range                    : Limited
Color primaries                : BT.709
Transfer characteristics       : BT.709
Matrix coefficients            : BT.709

Audio
ID                             : 2
Format                         : Opus
Codec ID                       : A_OPUS
Duration                       : 15 min 39 s
Bit rate                       : 143 kb/s
Channel(s)                     : 2 channels
Channel layout                 : L R
Sampling rate                  : 48.0 kHz
Frame rate                     : 50.000 FPS (960 SPF)
Compression mode               : Lossy
Stream size                    : 16.0 MiB (1%)
Default                        : Yes
Forced                         : No



游客,如果您要查看本帖隐藏内容请回复



.


回复

使用道具 举报

5

主题

1290

帖子

3702

积分

4K家园VIP

Rank: 9Rank: 9Rank: 9

积分
3702
发表于 2021-1-31 21:20:45 | 显示全部楼层
佩服佩服!
回复 支持 反对

使用道具 举报

0

主题

3

帖子

12

积分

新手上路

Rank: 1

积分
12
发表于 2021-1-31 21:23:54 来自手机 | 显示全部楼层
我要下载
回复

使用道具 举报

0

主题

2608

帖子

8395

积分

4K家园VIP

Rank: 9Rank: 9Rank: 9

积分
8395
发表于 2021-1-31 21:52:57 | 显示全部楼层
夏威夷最大岛4k
回复 支持 反对

使用道具 举报

0

主题

29

帖子

1778

积分

注册会员

Rank: 2

积分
1778
发表于 2021-1-31 21:55:10 | 显示全部楼层
太好啦&萬分感謝版主的無私發佈分享%
回复 支持 反对

使用道具 举报

0

主题

1

帖子

10

积分

新手上路

Rank: 1

积分
10
发表于 2021-2-1 01:25:29 | 显示全部楼层
太佩服了,刚好需要,谢谢
回复 支持 反对

使用道具 举报

0

主题

49

帖子

1546

积分

注册会员

Rank: 2

积分
1546
发表于 2021-2-1 07:37:14 | 显示全部楼层
好需要,谢谢
回复 支持 反对

使用道具 举报

0

主题

11

帖子

29

积分

新手上路

Rank: 1

积分
29
发表于 2021-2-1 09:58:09 | 显示全部楼层
好东西,过年坐家里看,就当旅游了。谢谢楼主分享
回复 支持 反对

使用道具 举报

0

主题

11

帖子

29

积分

新手上路

Rank: 1

积分
29
发表于 2021-2-1 09:59:13 | 显示全部楼层
啊,还要金币啊?新手没有
回复 支持 反对

使用道具 举报

2

主题

1219

帖子

3481

积分

4K家园VIP

Rank: 9Rank: 9Rank: 9

积分
3481
发表于 2021-2-2 16:10:41 来自手机 | 显示全部楼层
无论是不是沙发都得回复下
回复 支持 反对

使用道具 举报

您需要登录后才可以回帖 登录 | 立即注册

本版积分规则

精彩图文
Archiver|手机版|TAG|Sitemap|新帖|专题|联系我们:邮箱: 4kjia.com@gmail.com   

4k家园   ©2019