[4K记录视频] [国家地理] 白口袋(2020)[2160P/MKV/949MB]

[复制链接]

2210

主题

2494

帖子

2万

积分

超级版主

Rank: 8Rank: 8

积分
20521
 楼主| 发表于 2021-2-1 12:11:08 | 显示全部楼层 |阅读模式

白口袋(2020)WEBRip 2160p.mkv_20210123_205723.134.jpg 白口袋(2020)WEBRip 2160p.mkv_20210123_205728.815.jpg 白口袋(2020)WEBRip 2160p.mkv_20210123_205733.790.jpg 白口袋(2020)WEBRip 2160p.mkv_20210123_205738.934.jpg

有关信息
标题: White Pocket
国家/地区:美国
时长: 00 : 07 : 44

发行年代: 2020
类型: 种类
导演: Milosh Kitchovitch

关于电影:

         White Pocket是位于美国亚利桑那州朱砂悬崖国家纪念碑的令人惊叹的自然美景的地方。这是一处令人惊叹的砂岩地带,尽管与周围的海浪一样令人惊叹,但远不及附近的波浪那么出名。白色的口袋很少有人去,人们需要一辆高离地间隙的4×4车辆才能到达。

General
Complete name                  : 白口袋(2020)WEBRip 2160p.mkv
Format                         : Matroska
Format version                 : Version 4
File size                      : 949 MiB
Duration                       : 7 min 44 s
Overall bit rate               : 17.2 Mb/s
Encoded date                   : UTC 2021-01-20 16:46:14
Writing application            : mkvmerge v52.0.0 ('Secret For The Mad') 64-bit
Writing library                : libebml v1.4.1 + libmatroska v1.6.2 / Lavf58.29.100

Video
ID                             : 1
Format                         : VP9
Codec ID                       : V_VP9
Duration                       : 7 min 44 s
Bit rate                       : 17.0 Mb/s
Width                          : 3 840 pixels
Height                         : 2 160 pixels
Display aspect ratio           : 16:9
Frame rate mode                : Constant
Frame rate                     : 29.970 (30000/1001) FPS
Color space                    : YUV
Bits/(Pixel*Frame)             : 0.068
Stream size                    : 942 MiB (99%)
Default                        : Yes
Forced                         : No
Color range                    : Limited
Color primaries                : BT.709
Transfer characteristics       : BT.709
Matrix coefficients            : BT.709

Audio
ID                             : 2
Format                         : Opus
Codec ID                       : A_OPUS
Duration                       : 7 min 44 s
Bit rate                       : 139 kb/s
Channel(s)                     : 2 channels
Channel layout                 : L R
Sampling rate                  : 48.0 kHz
Frame rate                     : 50.000 FPS (960 SPF)
Compression mode               : Lossy
Stream size                    : 7.70 MiB (1%)
Default                        : Yes
Forced                         : No






游客,如果您要查看本帖隐藏内容请回复



.
回复

使用道具 举报

46

主题

1287

帖子

3695

积分

4K家园VIP

Rank: 9Rank: 9Rank: 9

积分
3695
发表于 2021-2-1 12:11:13 | 显示全部楼层
站位支持
回复 支持 反对

使用道具 举报

0

主题

2695

帖子

8530

积分

4K家园VIP

Rank: 9Rank: 9Rank: 9

积分
8530
发表于 2021-2-1 12:20:17 | 显示全部楼层
太好啦&萬分感謝版主的無私發佈分享%
回复 支持 反对

使用道具 举报

0

主题

30

帖子

124

积分

新手上路

Rank: 1

积分
124
发表于 2021-2-1 17:38:29 | 显示全部楼层
fffffffffffff
回复 支持 反对

使用道具 举报

2

主题

1037

帖子

3127

积分

4K家园VIP

Rank: 9Rank: 9Rank: 9

积分
3127
发表于 2021-2-4 14:43:43 | 显示全部楼层
垃圾内容,路过为证。
回复 支持 反对

使用道具 举报

1

主题

1164

帖子

3506

积分

4K家园VIP

Rank: 9Rank: 9Rank: 9

积分
3506
发表于 2021-2-4 15:37:47 | 显示全部楼层
顶起出售广告位
回复 支持 反对

使用道具 举报

2

主题

1205

帖子

3425

积分

4K家园VIP

Rank: 9Rank: 9Rank: 9

积分
3425
发表于 2021-2-9 02:08:34 来自手机 | 显示全部楼层
纯粹路过,没任何兴趣,仅仅是看在老用户份上回复一下
回复 支持 反对

使用道具 举报

0

主题

1199

帖子

3431

积分

4K家园VIP

Rank: 9Rank: 9Rank: 9

积分
3431
发表于 2021-2-9 10:49:19 | 显示全部楼层
回复 支持 反对

使用道具 举报

0

主题

2

帖子

19

积分

4K家园VIP

Rank: 9Rank: 9Rank: 9

积分
19
发表于 2021-2-9 12:58:38 | 显示全部楼层

4K家园不错,希望这种资源越多越好
回复 支持 反对

使用道具 举报

0

主题

319

帖子

1101

积分

注册会员

Rank: 2

积分
1101
发表于 2021-2-10 13:42:52 | 显示全部楼层
感谢楼主分享
回复 支持 反对

使用道具 举报

您需要登录后才可以回帖 登录 | 立即注册

本版积分规则

精彩图文
Archiver|手机版|TAG|Sitemap|新帖|专题|联系我们:邮箱: 4kjia.com@gmail.com   

4k家园   ©2019