[4K记录视频] [国家地理] 土狼峡谷(2020)[2160P/MKV/1.43GB]

[复制链接]

2212

主题

2497

帖子

2万

积分

超级版主

Rank: 8Rank: 8

积分
20561
 楼主| 发表于 2021-2-11 13:22:33 | 显示全部楼层 |阅读模式

土狼峡谷(2020)(1.43GB)WEBRip 2160p.mkv_20210126_152007.823.jpg 土狼峡谷(2020)(1.43GB)WEBRip 2160p.mkv_20210126_152048.173.jpg 土狼峡谷(2020)(1.43GB)WEBRip 2160p.mkv_20210126_152053.365.jpg 土狼峡谷(2020)(1.43GB)WEBRip 2160p.mkv_20210126_152058.310.jpg

有关信息
标题: Gorge Coyote
发行: 2020
国家/地区:美国
时长: 00:11 : 53
类型: 物种
导演: Milosh Kitchovitch

关于电影:

        Gulch Coyote和Stevens Canyon位于犹他州的Escalante Canyons。该地区拥有一些最美丽的地方,瀑布,常年流水,拱门和天然桥梁。在土狼峡谷中很难找到令人振奋的美丽。


General
Complete name                  : 国家地理\土狼峡谷(2020)(1.43GB)WEBRip 2160p.mkv
Format                         : Matroska
Format version                 : Version 4
File size                      : 1.43 GiB
Duration                       : 11 min 53 s
Overall bit rate               : 17.2 Mb/s
Encoded date                   : UTC 2021-01-24 15:44:58
Writing application            : mkvmerge v52.0.0 ('Secret For The Mad') 64-bit
Writing library                : libebml v1.4.1 + libmatroska v1.6.2 / Lavf58.29.100

Video
ID                             : 1
Format                         : VP9
Codec ID                       : V_VP9
Duration                       : 11 min 53 s
Bit rate                       : 17.0 Mb/s
Width                          : 3 840 pixels
Height                         : 2 160 pixels
Display aspect ratio           : 16:9
Frame rate mode                : Constant
Frame rate                     : 29.970 (30000/1001) FPS
Color space                    : YUV
Bits/(Pixel*Frame)             : 0.068
Stream size                    : 1.41 GiB (99%)
Default                        : Yes
Forced                         : No
Color range                    : Limited
Color primaries                : BT.709
Transfer characteristics       : BT.709
Matrix coefficients            : BT.709

Audio
ID                             : 2
Format                         : Opus
Codec ID                       : A_OPUS
Duration                       : 11 min 53 s
Bit rate                       : 134 kb/s
Channel(s)                     : 2 channels
Channel layout                 : L R
Sampling rate                  : 48.0 kHz
Frame rate                     : 50.001 FPS (960 SPF)
Compression mode               : Lossy
Stream size                    : 11.4 MiB (1%)
Default                        : Yes
Forced                         : No




土狼峡谷(1.43GB)(2020)WEBRip 2160p.torrent (15.26 KB, 售价: 15 金币)
回复

使用道具 举报

1

主题

1208

帖子

3412

积分

4K家园VIP

Rank: 9Rank: 9Rank: 9

积分
3412
发表于 2021-2-11 13:22:39 | 显示全部楼层
我也来顶一下..
回复 支持 反对

使用道具 举报

0

主题

2813

帖子

8711

积分

4K家园VIP

Rank: 9Rank: 9Rank: 9

积分
8711
发表于 2021-2-11 14:34:33 | 显示全部楼层
犹他州土狼峡谷4k
回复 支持 反对

使用道具 举报

2

主题

1177

帖子

3553

积分

4K家园VIP

Rank: 9Rank: 9Rank: 9

积分
3553
发表于 2021-2-14 21:05:33 | 显示全部楼层
珍爱生命,果断回帖。
回复 支持 反对

使用道具 举报

0

主题

324

帖子

1119

积分

注册会员

Rank: 2

积分
1119
发表于 2021-2-16 20:25:51 | 显示全部楼层
谢谢楼主分享
回复 支持 反对

使用道具 举报

1

主题

1227

帖子

3529

积分

4K家园VIP

Rank: 9Rank: 9Rank: 9

积分
3529
发表于 2021-2-19 19:20:46 | 显示全部楼层
为了三千积分!
回复 支持 反对

使用道具 举报

0

主题

7

帖子

25

积分

新手上路

Rank: 1

积分
25
发表于 2021-2-19 20:27:53 来自手机 | 显示全部楼层
感谢楼主分享
回复 支持 反对

使用道具 举报

1

主题

1087

帖子

3277

积分

4K家园VIP

Rank: 9Rank: 9Rank: 9

积分
3277
发表于 2021-2-20 04:36:45 来自手机 | 显示全部楼层
回复 支持 反对

使用道具 举报

3

主题

1323

帖子

3809

积分

4K家园VIP

Rank: 9Rank: 9Rank: 9

积分
3809
发表于 2021-2-21 08:12:40 | 显示全部楼层
我也来顶一下..
回复 支持 反对

使用道具 举报

您需要登录后才可以回帖 登录 | 立即注册

本版积分规则

精彩图文
Archiver|手机版|TAG|Sitemap|新帖|专题|联系我们:邮箱: 4kjia.com@gmail.com   

4k家园   ©2019