[4K记录视频] [国家地理] 免费猎鹰(2020)[2160P/MKV/332MB]

[复制链接]

2210

主题

2494

帖子

2万

积分

超级版主

Rank: 8Rank: 8

积分
20521
 楼主| 发表于 7 天前 | 显示全部楼层 |阅读模式

免费猎鹰(2020)(322.38MB)WEBRip 2160p.mkv_20210126_154107.255.jpg 免费猎鹰(2020)(322.38MB)WEBRip 2160p.mkv_20210126_154131.783.jpg 免费猎鹰(2020)(322.38MB)WEBRip 2160p.mkv_20210126_154144.719.jpg 免费猎鹰(2020)(322.38MB)WEBRip 2160p.mkv_20210126_154154.063.jpg

有关信息
标题: Svobodny Sokol
发行年份: 2020
类型: 种类
导演:无限之风

关于电影:

          Svobodny Sokol是俄罗斯冶金厂。利佩茨克市的主要企业之一。


国家:俄罗斯
时间: ○点02分49秒


General
Complete name                  : 国家地理\免费猎鹰(2020)(322.38MB)WEBRip 2160p.mkv
Format                         : Matroska
Format version                 : Version 4
File size                      : 322 MiB
Duration                       : 2 min 49 s
Overall bit rate               : 15.9 Mb/s
Encoded date                   : UTC 2021-01-24 17:54:48
Writing application            : mkvmerge v52.0.0 ('Secret For The Mad') 64-bit
Writing library                : libebml v1.4.1 + libmatroska v1.6.2 / Lavf58.29.100

Video
ID                             : 1
Format                         : VP9
Codec ID                       : V_VP9
Duration                       : 2 min 49 s
Bit rate                       : 15.8 Mb/s
Width                          : 3 840 pixels
Height                         : 2 160 pixels
Display aspect ratio           : 16:9
Frame rate mode                : Constant
Frame rate                     : 29.970 (30000/1001) FPS
Color space                    : YUV
Bits/(Pixel*Frame)             : 0.063
Stream size                    : 320 MiB (99%)
Default                        : Yes
Forced                         : No
Color range                    : Limited
Color primaries                : BT.709
Transfer characteristics       : BT.709
Matrix coefficients            : BT.709

Audio
ID                             : 2
Format                         : Opus
Codec ID                       : A_OPUS
Duration                       : 2 min 49 s
Bit rate                       : 132 kb/s
Channel(s)                     : 2 channels
Channel layout                 : L R
Sampling rate                  : 48.0 kHz
Frame rate                     : 50.002 FPS (960 SPF)
Compression mode               : Lossy
Stream size                    : 2.66 MiB (1%)
Default                        : Yes
Forced                         : No



免费猎鹰(2020)(322.38MB)WEBRip 2160p.torrent (13.6 KB, 售价: 15 金币)
回复

使用道具 举报

0

主题

1417

帖子

3819

积分

4K家园VIP

Rank: 9Rank: 9Rank: 9

积分
3819
发表于 7 天前 | 显示全部楼层
回复 支持 反对

使用道具 举报

0

主题

2695

帖子

8530

积分

4K家园VIP

Rank: 9Rank: 9Rank: 9

积分
8530
发表于 7 天前 | 显示全部楼层
太好啦&萬分感謝版主的無私發佈分享%
回复 支持 反对

使用道具 举报

0

主题

1177

帖子

3541

积分

4K家园VIP

Rank: 9Rank: 9Rank: 9

积分
3541
发表于 6 天前 | 显示全部楼层
打酱油的人拉,回复下赚取积分
回复 支持 反对

使用道具 举报

0

主题

1297

帖子

3703

积分

4K家园VIP

Rank: 9Rank: 9Rank: 9

积分
3703
发表于 6 天前 | 显示全部楼层
发发呆,回回帖,工作结束~
回复 支持 反对

使用道具 举报

3

主题

1317

帖子

3791

积分

4K家园VIP

Rank: 9Rank: 9Rank: 9

积分
3791
发表于 3 天前 来自手机 | 显示全部楼层
LZ是天才,坚定完毕
回复 支持 反对

使用道具 举报

0

主题

319

帖子

1101

积分

注册会员

Rank: 2

积分
1101
发表于 前天 18:26 | 显示全部楼层
感谢楼主的分享
回复 支持 反对

使用道具 举报

您需要登录后才可以回帖 登录 | 立即注册

本版积分规则

精彩图文
Archiver|手机版|TAG|Sitemap|新帖|专题|联系我们:邮箱: 4kjia.com@gmail.com   

4k家园   ©2019