[4K记录视频] [国家地理] 中国重庆大足石刻(2018)[2160P/MKV/741MB]

[复制链接]

2210

主题

2494

帖子

2万

积分

超级版主

Rank: 8Rank: 8

积分
20512
 楼主| 发表于 2021-1-26 19:30:00 | 显示全部楼层 |阅读模式

中国重庆大足石刻(2018)WEBRip 2160p.mkv_20210126_160546.994.jpg 中国重庆大足石刻(2018)WEBRip 2160p.mkv_20210126_160600.369.jpg 中国重庆大足石刻(2018)WEBRip 2160p.mkv_20210126_160613.273.jpg 中国重庆大足石刻(2018)WEBRip 2160p.mkv_20210126_160626.025.jpg 中国重庆大足石刻(2018)WEBRip 2160p.mkv_20210126_160632.210.jpg 中国重庆大足石刻(2018)WEBRip 2160p.mkv_20210126_160640.993.jpg 中国重庆大足石刻(2018)WEBRip 2160p.mkv_20210126_160701.817.jpg 中国重庆大足石刻(2018)WEBRip 2160p.mkv_20210126_160711.578.jpg

有关信息
标题:中国重庆大足石刻
发行年份: 2018
类型: 种类
导演:米洛什·基奇维奇

关于电影:

         大足的岩石浮雕-中国的石材历史,始于650年。早在7世纪,当地的石刻匠就用道教,佛教和儒家主题的浅浮雕装饰了周围的岩石。客户是普通话,和尚,富裕的公民。例如,某位赵志峰成名,他从事这项职业长达70年。浅浮雕隐藏在难以到达的区域,不让人们窥视,这使它们脱离了“文化大革命”的积极分子。它们是在1961年偶然发现的,并在1999年被添加到了联合国教科文组织人类遗产名录中。


国家/地区:中国
持续时间: 00 : 06 : 08


General
Complete name                  : J:\中国重庆大足石刻(2018)WEBRip 2160p.mkv
Format                         : Matroska
Format version                 : Version 4
File size                      : 741 MiB
Duration                       : 6 min 8 s
Overall bit rate               : 16.9 Mb/s
Encoded date                   : UTC 2021-01-15 16:35:41
Writing application            : mkvmerge v52.0.0 ('Secret For The Mad') 64-bit
Writing library                : libebml v1.4.1 + libmatroska v1.6.2 / Lavf58.29.100

Video
ID                             : 1
Format                         : VP9
Codec ID                       : V_VP9
Duration                       : 6 min 8 s
Bit rate                       : 16.7 Mb/s
Width                          : 3 840 pixels
Height                         : 2 160 pixels
Display aspect ratio           : 16:9
Frame rate mode                : Constant
Frame rate                     : 29.970 (30000/1001) FPS
Color space                    : YUV
Bits/(Pixel*Frame)             : 0.067
Stream size                    : 736 MiB (99%)
Default                        : Yes
Forced                         : No
Color range                    : Limited
Color primaries                : BT.709
Transfer characteristics       : BT.709
Matrix coefficients            : BT.709

Audio
ID                             : 2
Format                         : AAC LC
Format/Info                    : Advanced Audio Codec Low Complexity
Codec ID                       : A_AAC-2
Duration                       : 6 min 8 s
Bit rate                       : 128 kb/s
Channel(s)                     : 2 channels
Channel layout                 : L R
Sampling rate                  : 44.1 kHz
Frame rate                     : 43.066 FPS (1024 SPF)
Compression mode               : Lossy
Stream size                    : 5.63 MiB (1%)
Default                        : Yes
Forced                         : No



中国重庆大足石刻(2018)WEBRip 2160p.torrent (15.51 KB, 售价: 15 金币)
回复

使用道具 举报

49

主题

1322

帖子

3866

积分

4K家园VIP

Rank: 9Rank: 9Rank: 9

积分
3866
发表于 2021-1-26 19:30:07 | 显示全部楼层
占坑编辑ing
回复 支持 反对

使用道具 举报

2

主题

1210

帖子

3496

积分

4K家园VIP

Rank: 9Rank: 9Rank: 9

积分
3496
发表于 2021-1-26 19:30:07 | 显示全部楼层
顶起顶起顶起
回复 支持 反对

使用道具 举报

0

主题

2628

帖子

8428

积分

4K家园VIP

Rank: 9Rank: 9Rank: 9

积分
8428
发表于 2021-1-26 19:43:14 | 显示全部楼层
中国重庆大足石刻4k
回复 支持 反对

使用道具 举报

1

主题

1107

帖子

3335

积分

4K家园VIP

Rank: 9Rank: 9Rank: 9

积分
3335
发表于 2021-1-26 21:05:27 | 显示全部楼层
哈哈,我只看看不说话
回复 支持 反对

使用道具 举报

56

主题

1379

帖子

3991

积分

4K家园VIP

Rank: 9Rank: 9Rank: 9

积分
3991
发表于 2021-1-26 21:12:13 | 显示全部楼层
啊啊啊啊啊啊啊啊啊啊啊
回复 支持 反对

使用道具 举报

0

主题

1160

帖子

3492

积分

4K家园VIP

Rank: 9Rank: 9Rank: 9

积分
3492
发表于 2021-1-27 03:22:31 | 显示全部楼层
元芳你怎么看?
回复 支持 反对

使用道具 举报

0

主题

309

帖子

1065

积分

注册会员

Rank: 2

积分
1065
发表于 2021-1-31 21:43:38 | 显示全部楼层
谢谢楼主分享
回复 支持 反对

使用道具 举报

您需要登录后才可以回帖 登录 | 立即注册

本版积分规则

精彩图文
Archiver|手机版|TAG|Sitemap|新帖|专题|联系我们:邮箱: 4kjia.com@gmail.com   

4k家园   ©2019