[4K记录视频] [国家地理] 莫斯科新年的夜晚(2020)[2160P/MKV/394MB]

[复制链接]

2212

主题

2497

帖子

2万

积分

超级版主

Rank: 8Rank: 8

积分
20561
 楼主| 发表于 2021-2-16 15:45:43 | 显示全部楼层 |阅读模式

莫斯科新年.mkv_20210126_164730.228.jpg 莫斯科新年.mkv_20210126_164737.950.jpg 莫斯科新年.mkv_20210126_164751.892.jpg 莫斯科新年.mkv_20210126_164758.877.jpg 莫斯科新年.mkv_20210126_164815.373.jpg 莫斯科新年.mkv_20210126_164835.988.jpg

有关信息
标题: New Year Moscow
发行年份: 2020

国家/地区:俄罗斯
持续时间: 00 : 02 : 23
类型: 种类
导演: Anton Elchaninov

关于电影:

         空中New Year莫斯科。


General
Complete name                  : J:\莫斯科新年.mkv
Format                         : Matroska
Format version                 : Version 4
File size                      : 394 MiB
Duration                       : 2 min 23 s
Overall bit rate               : 23.1 Mb/s
Encoded date                   : UTC 2021-01-08 19:01:47
Writing application            : mkvmerge v52.0.0 ('Secret For The Mad') 64-bit
Writing library                : libebml v1.4.1 + libmatroska v1.6.2

Video
ID                             : 1
Format                         : AVC
Format/Info                    : Advanced Video Codec
Format profile                 : High@L5.2
Format settings                : CABAC / 5 Ref Frames
Format settings, CABAC         : Yes
Format settings, Reference fra : 5 frames
Codec ID                       : V_MPEG4/ISO/AVC
Duration                       : 2 min 23 s
Bit rate                       : 22.8 Mb/s
Width                          : 3 840 pixels
Height                         : 2 160 pixels
Display aspect ratio           : 16:9
Frame rate mode                : Constant
Frame rate                     : 25.000 FPS
Color space                    : YUV
Chroma subsampling             : 4:2:0
Bit depth                      : 8 bits
Scan type                      : Progressive
Bits/(Pixel*Frame)             : 0.110
Stream size                    : 390 MiB (99%)
Writing library                : x264 core 161 r10 4121277
Encoding settings              : cabac=1 / ref=5 / deblock=1:0:0 / analyse=0x3:0x113 / me=hex / subme=8 / psy=1 / psy_rd=1.00:0.00 / mixed_ref=1 / me_range=16 / chroma_me=1 / trellis=2 / 8x8dct=1 / cqm=0 / deadzone=21,11 / fast_pskip=1 / chroma_qp_offset=-2 / threads=48 / lookahead_threads=8 / sliced_threads=0 / nr=0 / decimate=1 / interlaced=0 / bluray_compat=0 / stitchable=1 / constrained_intra=0 / bframes=3 / b_pyramid=2 / b_adapt=2 / b_bias=0 / direct=3 / weightb=1 / open_gop=0 / weightp=2 / keyint=infinite / keyint_min=25 / scenecut=40 / intra_refresh=0 / rc_lookahead=50 / rc=crf / mbtree=1 / crf=20.0 / qcomp=0.60 / qpmin=5 / qpmax=69 / qpstep=4 / vbv_maxrate=24200 / vbv_bufsize=66000 / crf_max=0.0 / nal_hrd=none / filler=0 / ip_ratio=1.40 / aq=1:1.00
Default                        : Yes
Forced                         : No
Color range                    : Limited
Color primaries                : BT.709
Transfer characteristics       : BT.709
Matrix coefficients            : BT.709

Audio
ID                             : 2
Format                         : AAC LC
Format/Info                    : Advanced Audio Codec Low Complexity
Codec ID                       : A_AAC-2
Duration                       : 2 min 23 s
Bit rate                       : 253 kb/s
Channel(s)                     : 2 channels
Channel layout                 : L R
Sampling rate                  : 48.0 kHz
Frame rate                     : 46.875 FPS (1024 SPF)
Compression mode               : Lossy
Stream size                    : 4.33 MiB (1%)
Default                        : Yes
Forced                         : No



莫斯科新年(2020)WEBRip 2160p.torrent (16.42 KB, 售价: 15 金币)
回复

使用道具 举报

2

主题

1569

帖子

4243

积分

4K家园VIP

Rank: 9Rank: 9Rank: 9

积分
4243
发表于 2021-2-16 15:45:48 来自手机 | 显示全部楼层
OMG!介是啥东东!!!
回复 支持 反对

使用道具 举报

0

主题

2813

帖子

8711

积分

4K家园VIP

Rank: 9Rank: 9Rank: 9

积分
8711
发表于 2021-2-16 21:13:19 | 显示全部楼层
太好啦&萬分感謝版主的無私發佈分享%
回复 支持 反对

使用道具 举报

1

主题

978

帖子

2950

积分

4K家园VIP

Rank: 9Rank: 9Rank: 9

积分
2950
发表于 2021-2-17 02:45:59 来自手机 | 显示全部楼层
还有没有别的资源,多分享些
回复 支持 反对

使用道具 举报

0

主题

5

帖子

18

积分

新手上路

Rank: 1

积分
18
发表于 2021-2-17 10:07:30 | 显示全部楼层
是啥东东
回复

使用道具 举报

194

主题

1415

帖子

3845

积分

4K家园VIP

Rank: 9Rank: 9Rank: 9

积分
3845
发表于 2021-2-18 15:31:11 | 显示全部楼层
支持支持再支持
回复 支持 反对

使用道具 举报

1

主题

1186

帖子

3584

积分

4K家园VIP

Rank: 9Rank: 9Rank: 9

积分
3584
发表于 2021-2-19 23:25:05 | 显示全部楼层
看起来不错
回复 支持 反对

使用道具 举报

2

主题

1040

帖子

3136

积分

4K家园VIP

Rank: 9Rank: 9Rank: 9

积分
3136
发表于 2021-2-20 01:36:46 | 显示全部楼层
顶顶更健康
回复 支持 反对

使用道具 举报

0

主题

324

帖子

1119

积分

注册会员

Rank: 2

积分
1119
发表于 7 天前 | 显示全部楼层
感谢楼主的分享
回复 支持 反对

使用道具 举报

您需要登录后才可以回帖 登录 | 立即注册

本版积分规则

精彩图文
Archiver|手机版|TAG|Sitemap|新帖|专题|联系我们:邮箱: 4kjia.com@gmail.com   

4k家园   ©2019