2021 AB6IX - 保持年轻4k[2160P/MP4/333MB]

[复制链接]

2212

主题

2497

帖子

2万

积分

超级版主

Rank: 8Rank: 8

积分
20561
 楼主| 发表于 2021-1-29 10:30:00 | 显示全部楼层 |阅读模式
本帖最后由 叽里呱啦 于 2021-1-29 13:12 编辑

2020 AB6IX - 保持年轻4k.mp4_20210128_201644.985.jpg 2020 AB6IX - 保持年轻4k.mp4_20210128_201740.257.jpg 2020 AB6IX - 保持年轻4k.mp4_20210128_201747.217.jpg 2020 AB6IX - 保持年轻4k.mp4_20210128_201812.009.jpg


General
Complete name                  : 2020 AB6IX - 保持年轻4k.mp4
Format                         : MPEG-4
Format profile                 : Base Media
Codec ID                       : isom (isom/iso2/avc1/mp41)
File size                      : 333 MiB
Duration                       : 3 min 37 s
Overall bit rate               : 12.9 Mb/s
Writing application            : Lavf58.12.100
exvr                           : EX1.8.2(C1.0.9)

Video
ID                             : 1
Format                         : AVC
Format/Info                    : Advanced Video Codec
Format profile                 : High@L5.1
Format settings                : CABAC / 4 Ref Frames
Format settings, CABAC         : Yes
Format settings, Reference fra : 4 frames
Codec ID                       : avc1
Codec ID/Info                  : Advanced Video Coding
Duration                       : 3 min 37 s
Bit rate                       : 12.7 Mb/s
Width                          : 3 840 pixels
Height                         : 2 160 pixels
Display aspect ratio           : 16:9
Frame rate mode                : Constant
Frame rate                     : 23.976 (23976/1000) FPS
Color space                    : YUV
Chroma subsampling             : 4:2:0
Bit depth                      : 8 bits
Scan type                      : Progressive
Bits/(Pixel*Frame)             : 0.064
Stream size                    : 328 MiB (98%)
Color range                    : Limited
Color primaries                : BT.709
Transfer characteristics       : BT.709
Matrix coefficients            : BT.709
Codec configuration box        : avcC

Audio
ID                             : 2
Format                         : AAC LC
Format/Info                    : Advanced Audio Codec Low Complexity
Codec ID                       : mp4a-40-2
Duration                       : 3 min 37 s
Bit rate mode                  : Constant
Bit rate                       : 192 kb/s
Channel(s)                     : 2 channels
Channel layout                 : L R
Sampling rate                  : 48.0 kHz
Frame rate                     : 46.875 FPS (1024 SPF)
Compression mode               : Lossy
Stream size                    : 4.97 MiB (1%)
Default                        : Yes
Alternate group                : 1




网盘下载失效不补:链接: https://pan.baidu.com/s/1_aS17Yc8OdaJ3LiTENMwgA 提取码:
****此区域为收费内容****    需支付 15 金币后可查看立即购买


ezgif.com-video-to-gif (6).gif

.
回复

使用道具 举报

44

主题

1311

帖子

3777

积分

4K家园VIP

Rank: 9Rank: 9Rank: 9

积分
3777
发表于 2021-1-29 10:30:07 | 显示全部楼层
LZ帖子不给力,勉强给回复下吧
回复 支持 反对

使用道具 举报

0

主题

2813

帖子

8711

积分

4K家园VIP

Rank: 9Rank: 9Rank: 9

积分
8711
发表于 2021-1-29 12:36:38 | 显示全部楼层
太好啦&萬分感謝版主的無私發佈分享%
回复 支持 反对

使用道具 举报

1

主题

1167

帖子

3517

积分

4K家园VIP

Rank: 9Rank: 9Rank: 9

积分
3517
发表于 2021-1-29 20:02:02 | 显示全部楼层
我是个凑数的。。。
回复 支持 反对

使用道具 举报

0

主题

324

帖子

1119

积分

注册会员

Rank: 2

积分
1119
发表于 2021-1-31 12:02:49 | 显示全部楼层
感谢楼主分享
回复 支持 反对

使用道具 举报

40

主题

1359

帖子

3885

积分

4K家园VIP

Rank: 9Rank: 9Rank: 9

积分
3885
发表于 2021-2-1 10:42:09 | 显示全部楼层
路过的帮顶
回复 支持 反对

使用道具 举报

1

主题

1167

帖子

3515

积分

4K家园VIP

Rank: 9Rank: 9Rank: 9

积分
3515
发表于 2021-2-3 02:36:45 | 显示全部楼层
好帖必须得顶起
回复 支持 反对

使用道具 举报

1

主题

1200

帖子

3616

积分

4K家园VIP

Rank: 9Rank: 9Rank: 9

积分
3616
发表于 2021-2-4 02:09:47 | 显示全部楼层
额.....这个可以有
回复 支持 反对

使用道具 举报

0

主题

2813

帖子

8711

积分

4K家园VIP

Rank: 9Rank: 9Rank: 9

积分
8711
发表于 2021-2-10 10:11:20 | 显示全部楼层
太好啦&萬分感謝版主的無私發佈分享%
回复 支持 反对

使用道具 举报

您需要登录后才可以回帖 登录 | 立即注册

本版积分规则

精彩图文
Archiver|手机版|TAG|Sitemap|新帖|专题|联系我们:邮箱: 4kjia.com@gmail.com   

4k家园   ©2019