2021 CRAVITY - 轮到我了4k [2160P/MP4/481MB]

[复制链接]

2210

主题

2494

帖子

2万

积分

超级版主

Rank: 8Rank: 8

积分
20521
 楼主| 发表于 2021-1-30 11:00:01 | 显示全部楼层 |阅读模式
2020 CRAVITY - 轮到我了4k.mp4_20210128_202909.669.jpg 2020 CRAVITY - 轮到我了4k.mp4_20210128_202918.041.jpg 2020 CRAVITY - 轮到我了4k.mp4_20210128_202923.489.jpg 2020 CRAVITY - 轮到我了4k.mp4_20210128_202932.913.jpg


General
Complete name                  : 2020 CRAVITY - 轮到我了4k.mp4
Format                         : MPEG-4
Format profile                 : Base Media
Codec ID                       : isom (isom/iso2/avc1/mp41)
File size                      : 481 MiB
Duration                       : 3 min 37 s
Overall bit rate               : 18.6 Mb/s
Writing application            : Lavf58.12.100
exvr                           : EX1.8.2(C1.0.9)

Video
ID                             : 1
Format                         : AVC
Format/Info                    : Advanced Video Codec
Format profile                 : High@L5.1
Format settings                : CABAC / 4 Ref Frames
Format settings, CABAC         : Yes
Format settings, Reference fra : 4 frames
Codec ID                       : avc1
Codec ID/Info                  : Advanced Video Coding
Duration                       : 3 min 37 s
Bit rate                       : 18.4 Mb/s
Width                          : 3 840 pixels
Height                         : 2 160 pixels
Display aspect ratio           : 16:9
Frame rate mode                : Constant
Frame rate                     : 23.976 (23976/1000) FPS
Color space                    : YUV
Chroma subsampling             : 4:2:0
Bit depth                      : 8 bits
Scan type                      : Progressive
Bits/(Pixel*Frame)             : 0.092
Stream size                    : 476 MiB (99%)
Color range                    : Limited
Color primaries                : BT.709
Transfer characteristics       : BT.709
Matrix coefficients            : BT.709
Codec configuration box        : avcC

Audio
ID                             : 2
Format                         : AAC LC
Format/Info                    : Advanced Audio Codec Low Complexity
Codec ID                       : mp4a-40-2
Duration                       : 3 min 37 s
Bit rate mode                  : Constant
Bit rate                       : 192 kb/s
Channel(s)                     : 2 channels
Channel layout                 : L R
Sampling rate                  : 48.0 kHz
Frame rate                     : 46.875 FPS (1024 SPF)
Compression mode               : Lossy
Stream size                    : 4.97 MiB (1%)
Default                        : Yes
Alternate group                : 1



网盘下载失效不补:链接: https://pan.baidu.com/s/12FCnLC9Bqu-hHjYwiYPQQw 提取码:
****此区域为收费内容****    需支付 15 金币后可查看立即购买



.
回复

使用道具 举报

1

主题

1232

帖子

3500

积分

4K家园VIP

Rank: 9Rank: 9Rank: 9

积分
3500
发表于 2021-1-30 11:00:14 | 显示全部楼层
确实不错,顶先
回复 支持 反对

使用道具 举报

3

主题

1439

帖子

3913

积分

4K家园VIP

Rank: 9Rank: 9Rank: 9

积分
3913
发表于 2021-2-2 03:05:06 | 显示全部楼层
4K电影下个试试
回复 支持 反对

使用道具 举报

1

主题

1193

帖子

3595

积分

4K家园VIP

Rank: 9Rank: 9Rank: 9

积分
3595
发表于 2021-2-3 11:36:13 | 显示全部楼层
哈哈,我只看看不说话
回复 支持 反对

使用道具 举报

61

主题

1325

帖子

3853

积分

4K家园VIP

Rank: 9Rank: 9Rank: 9

积分
3853
发表于 2021-2-12 03:28:59 来自手机 | 显示全部楼层
高手云集 果断围观
回复 支持 反对

使用道具 举报

40

主题

1389

帖子

3957

积分

4K家园VIP

Rank: 9Rank: 9Rank: 9

积分
3957
发表于 2021-2-13 01:39:29 | 显示全部楼层
啊啊啊啊啊啊啊啊啊啊啊
回复 支持 反对

使用道具 举报

0

主题

319

帖子

1101

积分

注册会员

Rank: 2

积分
1101
发表于 2021-2-20 20:26:40 | 显示全部楼层
感谢楼主分享
回复 支持 反对

使用道具 举报

0

主题

2698

帖子

8533

积分

4K家园VIP

Rank: 9Rank: 9Rank: 9

积分
8533
发表于 3 天前 | 显示全部楼层
太好啦&萬分感謝版主的無私發佈分享%
回复 支持 反对

使用道具 举报

您需要登录后才可以回帖 登录 | 立即注册

本版积分规则

精彩图文
Archiver|手机版|TAG|Sitemap|新帖|专题|联系我们:邮箱: 4kjia.com@gmail.com   

4k家园   ©2019