2021 Dreamcatcher - 奇眼4k [2160P/MP4/431MB]

[复制链接]

2210

主题

2494

帖子

2万

积分

超级版主

Rank: 8Rank: 8

积分
20512
 楼主| 发表于 2021-1-31 11:30:00 | 显示全部楼层 |阅读模式
2020 Dreamcatcher - 奇眼4k.mp4_20210128_203350.033.jpg 2020 Dreamcatcher - 奇眼4k.mp4_20210128_203357.089.jpg 2020 Dreamcatcher - 奇眼4k.mp4_20210128_203410.304.jpg 2020 Dreamcatcher - 奇眼4k.mp4_20210128_203422.296.jpg


General
Complete name                  : 2021 Dreamcatcher - 奇眼4k.mp4
Format                         : MPEG-4
Format profile                 : Base Media
Codec ID                       : isom (isom/iso2/avc1/mp41)
File size                      : 432 MiB
Duration                       : 3 min 21 s
Overall bit rate               : 17.9 Mb/s
Writing application            : Lavf58.12.100
exvr                           : EX1.8.2(C1.0.9)

Video
ID                             : 1
Format                         : AVC
Format/Info                    : Advanced Video Codec
Format profile                 : High@L5.1
Format settings                : CABAC / 4 Ref Frames
Format settings, CABAC         : Yes
Format settings, Reference fra : 4 frames
Codec ID                       : avc1
Codec ID/Info                  : Advanced Video Coding
Duration                       : 3 min 21 s
Bit rate                       : 17.8 Mb/s
Width                          : 3 840 pixels
Height                         : 2 160 pixels
Display aspect ratio           : 16:9
Frame rate mode                : Constant
Frame rate                     : 23.976 (23976/1000) FPS
Color space                    : YUV
Chroma subsampling             : 4:2:0
Bit depth                      : 8 bits
Scan type                      : Progressive
Bits/(Pixel*Frame)             : 0.089
Stream size                    : 427 MiB (99%)
Color range                    : Limited
Color primaries                : BT.709
Transfer characteristics       : BT.709
Matrix coefficients            : BT.709
Codec configuration box        : avcC

Audio
ID                             : 2
Format                         : AAC LC
Format/Info                    : Advanced Audio Codec Low Complexity
Codec ID                       : mp4a-40-2
Duration                       : 3 min 21 s
Duration_LastFrame             : -1 ms
Bit rate mode                  : Constant
Bit rate                       : 192 kb/s
Channel(s)                     : 2 channels
Channel layout                 : L R
Sampling rate                  : 48.0 kHz
Frame rate                     : 46.875 FPS (1024 SPF)
Compression mode               : Lossy
Stream size                    : 4.62 MiB (1%)
Default                        : Yes
Alternate group                : 1



网盘下载失效不补:链接: https://pan.baidu.com/s/1H2vU1Smp4U0wp48cW3yqDw 提取码:
****此区域为收费内容****    需支付 15 金币后可查看立即购买



.
回复

使用道具 举报

1

主题

1192

帖子

3592

积分

4K家园VIP

Rank: 9Rank: 9Rank: 9

积分
3592
发表于 2021-1-31 11:30:06 | 显示全部楼层
你们要是有4K资源记得分享,别小气
回复 支持 反对

使用道具 举报

44

主题

1309

帖子

3771

积分

4K家园VIP

Rank: 9Rank: 9Rank: 9

积分
3771
发表于 2021-1-31 16:33:36 来自手机 | 显示全部楼层
有空一起交流一下
回复 支持 反对

使用道具 举报

50

主题

1317

帖子

3723

积分

4K家园VIP

Rank: 9Rank: 9Rank: 9

积分
3723
发表于 2021-2-5 20:07:09 来自手机 | 显示全部楼层
无论是不是沙发都得回复下
回复 支持 反对

使用道具 举报

0

主题

1508

帖子

4072

积分

4K家园VIP

Rank: 9Rank: 9Rank: 9

积分
4072
发表于 2021-2-9 02:14:36 | 显示全部楼层
锄禾日当午,发帖真辛苦。谁知坛中餐,帖帖皆辛苦!
回复 支持 反对

使用道具 举报

0

主题

1493

帖子

4115

积分

4K家园VIP

Rank: 9Rank: 9Rank: 9

积分
4115
发表于 2021-2-13 16:52:49 | 显示全部楼层
垃圾
回复 支持 反对

使用道具 举报

您需要登录后才可以回帖 登录 | 立即注册

本版积分规则

精彩图文
Archiver|手机版|TAG|Sitemap|新帖|专题|联系我们:邮箱: 4kjia.com@gmail.com   

4k家园   ©2019