2021 SATURDAY - 只有你(表演视频)4k[2160P/MP4/431MB]

[复制链接]

2210

主题

2494

帖子

2万

积分

超级版主

Rank: 8Rank: 8

积分
20521
 楼主| 发表于 2021-2-1 10:30:00 | 显示全部楼层 |阅读模式
2020 SATURDAY - 只有你(表演视频)4k.mp4_20210128_203836.264.jpg 2020 SATURDAY - 只有你(表演视频)4k.mp4_20210128_203842.264.jpg 2020 SATURDAY - 只有你(表演视频)4k.mp4_20210128_203848.384.jpg 2020 SATURDAY - 只有你(表演视频)4k.mp4_20210128_203905.064.jpg

General
Complete name                  : 2021 SATURDAY - 只有你(表演视频)4k.mp4
Format                         : MPEG-4
Format profile                 : Base Media
Codec ID                       : isom (isom/iso2/avc1/mp41)
File size                      : 432 MiB
Duration                       : 3 min 16 s
Overall bit rate               : 18.5 Mb/s
Writing application            : Lavf58.12.100
exvr                           : EX1.8.2(C1.0.9)

Video
ID                             : 1
Format                         : AVC
Format/Info                    : Advanced Video Codec
Format profile                 : High@L5.1
Format settings                : CABAC / 4 Ref Frames
Format settings, CABAC         : Yes
Format settings, Reference fra : 4 frames
Codec ID                       : avc1
Codec ID/Info                  : Advanced Video Coding
Duration                       : 3 min 16 s
Bit rate                       : 18.3 Mb/s
Width                          : 3 840 pixels
Height                         : 2 160 pixels
Display aspect ratio           : 16:9
Frame rate mode                : Constant
Frame rate                     : 29.970 (29970/1000) FPS
Color space                    : YUV
Chroma subsampling             : 4:2:0
Bit depth                      : 8 bits
Scan type                      : Progressive
Bits/(Pixel*Frame)             : 0.074
Stream size                    : 427 MiB (99%)
Color range                    : Limited
Color primaries                : BT.709
Transfer characteristics       : BT.709
Matrix coefficients            : BT.709
Codec configuration box        : avcC

Audio
ID                             : 2
Format                         : AAC LC
Format/Info                    : Advanced Audio Codec Low Complexity
Codec ID                       : mp4a-40-2
Duration                       : 3 min 16 s
Bit rate mode                  : Constant
Bit rate                       : 192 kb/s
Channel(s)                     : 2 channels
Channel layout                 : L R
Sampling rate                  : 48.0 kHz
Frame rate                     : 46.875 FPS (1024 SPF)
Compression mode               : Lossy
Stream size                    : 4.49 MiB (1%)
Default                        : Yes
Alternate group                : 1



网盘下载失效不补:链接: https://pan.baidu.com/s/1pyRaIIH2-1ExTP89dVMySA 提取码:
****此区域为收费内容****    需支付 15 金币后可查看立即购买



.
回复

使用道具 举报

0

主题

1420

帖子

3860

积分

4K家园VIP

Rank: 9Rank: 9Rank: 9

积分
3860
发表于 2021-2-1 10:30:07 | 显示全部楼层
支持楼主,用户楼主,楼主英明呀!!!
回复 支持 反对

使用道具 举报

0

主题

1190

帖子

3586

积分

4K家园VIP

Rank: 9Rank: 9Rank: 9

积分
3586
发表于 2021-2-1 10:30:07 | 显示全部楼层
佩服佩服!
回复 支持 反对

使用道具 举报

47

主题

1329

帖子

3813

积分

4K家园VIP

Rank: 9Rank: 9Rank: 9

积分
3813
发表于 2021-2-2 20:41:43 | 显示全部楼层
你们要是有4K资源记得分享,别小气
回复 支持 反对

使用道具 举报

0

主题

1153

帖子

3475

积分

4K家园VIP

Rank: 9Rank: 9Rank: 9

积分
3475
发表于 2021-2-7 07:06:15 来自手机 | 显示全部楼层
看帖要回,回帖才健康,在踩踩,楼主辛苦了!
回复 支持 反对

使用道具 举报

1

主题

1085

帖子

3271

积分

4K家园VIP

Rank: 9Rank: 9Rank: 9

积分
3271
发表于 2021-2-10 03:26:44 | 显示全部楼层
回复 支持 反对

使用道具 举报

0

主题

2698

帖子

8533

积分

4K家园VIP

Rank: 9Rank: 9Rank: 9

积分
8533
发表于 2021-2-17 21:24:20 | 显示全部楼层
太好啦&萬分感謝版主的無私發佈分享%
回复 支持 反对

使用道具 举报

0

主题

319

帖子

1101

积分

注册会员

Rank: 2

积分
1101
发表于 2021-2-20 20:26:08 | 显示全部楼层
感谢楼主分享
回复 支持 反对

使用道具 举报

您需要登录后才可以回帖 登录 | 立即注册

本版积分规则

精彩图文
Archiver|手机版|TAG|Sitemap|新帖|专题|联系我们:邮箱: 4kjia.com@gmail.com   

4k家园   ©2019