2021 T1419 - Asuraballta(性能视频)4k [2160P/MP4/489MB]

[复制链接]

2210

主题

2494

帖子

2万

积分

超级版主

Rank: 8Rank: 8

积分
20512
 楼主| 发表于 2021-2-2 13:30:00 | 显示全部楼层 |阅读模式
2020 T1419 - Asuraballta(性能视频)4k.mp4_20210128_204218.201.jpg 2020 T1419 - Asuraballta(性能视频)4k.mp4_20210128_204228.296.jpg 2020 T1419 - Asuraballta(性能视频)4k.mp4_20210128_204243.160.jpg 2020 T1419 - Asuraballta(性能视频)4k.mp4_20210128_204238.432.jpg


General
Complete name                  :2021 T1419 - Asuraballta(性能视频)4k.mp4
Format                         : MPEG-4
Format profile                 : Base Media
Codec ID                       : isom (isom/iso2/avc1/mp41)
File size                      : 489 MiB
Duration                       : 3 min 37 s
Overall bit rate               : 18.8 Mb/s
Writing application            : Lavf58.12.100
exvr                           : EX1.8.2(C1.0.9)

Video
ID                             : 1
Format                         : AVC
Format/Info                    : Advanced Video Codec
Format profile                 : High@L5.1
Format settings                : CABAC / 4 Ref Frames
Format settings, CABAC         : Yes
Format settings, Reference fra : 4 frames
Codec ID                       : avc1
Codec ID/Info                  : Advanced Video Coding
Duration                       : 3 min 37 s
Bit rate                       : 18.6 Mb/s
Width                          : 3 840 pixels
Height                         : 2 160 pixels
Display aspect ratio           : 16:9
Frame rate mode                : Constant
Frame rate                     : 23.976 (23976/1000) FPS
Color space                    : YUV
Chroma subsampling             : 4:2:0
Bit depth                      : 8 bits
Scan type                      : Progressive
Bits/(Pixel*Frame)             : 0.094
Stream size                    : 484 MiB (99%)
Color range                    : Limited
Color primaries                : BT.709
Transfer characteristics       : BT.709
Matrix coefficients            : BT.709
Codec configuration box        : avcC

Audio
ID                             : 2
Format                         : AAC LC
Format/Info                    : Advanced Audio Codec Low Complexity
Codec ID                       : mp4a-40-2
Duration                       : 3 min 37 s
Duration_LastFrame             : -1 ms
Bit rate mode                  : Constant
Bit rate                       : 192 kb/s
Channel(s)                     : 2 channels
Channel layout                 : L R
Sampling rate                  : 48.0 kHz
Frame rate                     : 46.875 FPS (1024 SPF)
Compression mode               : Lossy
Stream size                    : 4.99 MiB (1%)
Default                        : Yes
Alternate group                : 1



网盘下载失效不补:链接: https://pan.baidu.com/s/1Nyjau4YPXb3buCIFRmF1gA 提取码:
****此区域为收费内容****    需支付 15 金币后可查看立即购买



.
2020 T1419 - Asuraballta(性能视频)4k.mp4_20210128_204249.928.jpg
回复

使用道具 举报

0

主题

1591

帖子

4319

积分

中级会员

Rank: 4

积分
4319
发表于 2021-2-2 13:30:04 | 显示全部楼层
顶起顶起顶起
回复 支持 反对

使用道具 举报

40

主题

1350

帖子

3852

积分

4K家园VIP

Rank: 9Rank: 9Rank: 9

积分
3852
发表于 2021-2-4 00:08:38 | 显示全部楼层
4K应该不错,我也下个看看
回复 支持 反对

使用道具 举报

31

主题

1387

帖子

3885

积分

4K家园VIP

Rank: 9Rank: 9Rank: 9

积分
3885
发表于 2021-2-8 22:09:49 | 显示全部楼层
1v1飘过
回复 支持 反对

使用道具 举报

2

主题

1175

帖子

3547

积分

4K家园VIP

Rank: 9Rank: 9Rank: 9

积分
3547
发表于 2021-2-10 10:52:25 | 显示全部楼层
前排顶起
回复 支持 反对

使用道具 举报

3

主题

1048

帖子

3160

积分

4K家园VIP

Rank: 9Rank: 9Rank: 9

积分
3160
发表于 2021-2-11 03:34:16 来自手机 | 显示全部楼层
怎么这么大,希望我电视能看啊
回复 支持 反对

使用道具 举报

0

主题

2628

帖子

8428

积分

4K家园VIP

Rank: 9Rank: 9Rank: 9

积分
8428
发表于 2021-2-17 21:24:02 | 显示全部楼层
太好啦&萬分感謝版主的無私發佈分享%
回复 支持 反对

使用道具 举报

您需要登录后才可以回帖 登录 | 立即注册

本版积分规则

精彩图文
Archiver|手机版|TAG|Sitemap|新帖|专题|联系我们:邮箱: 4kjia.com@gmail.com   

4k家园   ©2019