2021 2021 U-KNOW - 伊尼米尼4k [2160P/MP4/279MB]

[复制链接]

2210

主题

2494

帖子

2万

积分

超级版主

Rank: 8Rank: 8

积分
20518
 楼主| 发表于 2021-2-8 16:26:53 | 显示全部楼层 |阅读模式

2021 U-KNOW - 伊尼米尼4k.mp4_20210128_205008.696.jpg 2021 U-KNOW - 伊尼米尼4k.mp4_20210128_205018.960.jpg 2021 U-KNOW - 伊尼米尼4k.mp4_20210128_205030.807.jpg 2021 U-KNOW - 伊尼米尼4k.mp4_20210128_205044.368.jpg

General
Complete name                  : 2021 U-KNOW - 伊尼米尼4k.mp4
Format                         : MPEG-4
Format profile                 : Base Media
Codec ID                       : isom (isom/iso2/avc1/mp41)
File size                      : 279 MiB
Duration                       : 3 min 5 s
Overall bit rate               : 12.6 Mb/s
Writing application            : Lavf58.12.100
exvr                           : EX1.8.2(C1.0.9)

Video
ID                             : 1
Format                         : AVC
Format/Info                    : Advanced Video Codec
Format profile                 : High@L5.1
Format settings                : CABAC / 4 Ref Frames
Format settings, CABAC         : Yes
Format settings, Reference fra : 4 frames
Codec ID                       : avc1
Codec ID/Info                  : Advanced Video Coding
Duration                       : 3 min 5 s
Bit rate                       : 12.4 Mb/s
Width                          : 3 840 pixels
Height                         : 2 160 pixels
Display aspect ratio           : 16:9
Frame rate mode                : Constant
Frame rate                     : 23.976 (23976/1000) FPS
Color space                    : YUV
Chroma subsampling             : 4:2:0
Bit depth                      : 8 bits
Scan type                      : Progressive
Bits/(Pixel*Frame)             : 0.063
Stream size                    : 275 MiB (98%)
Color range                    : Limited
Color primaries                : BT.709
Transfer characteristics       : BT.709
Matrix coefficients            : BT.709
Codec configuration box        : avcC

Audio
ID                             : 2
Format                         : AAC LC
Format/Info                    : Advanced Audio Codec Low Complexity
Codec ID                       : mp4a-40-2
Duration                       : 3 min 5 s
Bit rate mode                  : Constant
Bit rate                       : 192 kb/s
Channel(s)                     : 2 channels
Channel layout                 : L R
Sampling rate                  : 48.0 kHz
Frame rate                     : 46.875 FPS (1024 SPF)
Compression mode               : Lossy
Stream size                    : 4.24 MiB (2%)
Default                        : Yes
Alternate group                : 1




网盘下载失效不补:链接: https://pan.baidu.com/s/1cZqLpfIw0ik0PNxuwLHChg 提取码:
****此区域为收费内容****    需支付 15 金币后可查看立即购买



.
回复

使用道具 举报

0

主题

1296

帖子

3700

积分

4K家园VIP

Rank: 9Rank: 9Rank: 9

积分
3700
发表于 2021-2-8 16:27:01 | 显示全部楼层
路过 帮顶 嘿嘿
回复 支持 反对

使用道具 举报

4

主题

1251

帖子

3625

积分

中级会员

Rank: 4

积分
3625
发表于 2021-2-8 20:09:01 | 显示全部楼层
高手云集 果断围观
回复 支持 反对

使用道具 举报

56

主题

1372

帖子

4000

积分

4K家园VIP

Rank: 9Rank: 9Rank: 9

积分
4000
发表于 2021-2-10 02:56:58 来自手机 | 显示全部楼层
路过 帮顶 嘿嘿
回复 支持 反对

使用道具 举报

0

主题

1214

帖子

3476

积分

中级会员

Rank: 4

积分
3476
发表于 2021-2-16 20:24:05 | 显示全部楼层
没明白
回复 支持 反对

使用道具 举报

3

主题

1139

帖子

3439

积分

4K家园VIP

Rank: 9Rank: 9Rank: 9

积分
3439
发表于 2021-2-16 21:12:55 | 显示全部楼层
感谢分享
回复 支持 反对

使用道具 举报

0

主题

314

帖子

1083

积分

注册会员

Rank: 2

积分
1083
发表于 2021-2-20 20:25:59 | 显示全部楼层
感谢楼主分享
回复 支持 反对

使用道具 举报

您需要登录后才可以回帖 登录 | 立即注册

本版积分规则

精彩图文
Archiver|手机版|TAG|Sitemap|新帖|专题|联系我们:邮箱: 4kjia.com@gmail.com   

4k家园   ©2019