[4K记录视频] [国家地理] 巴厘岛-众神之岛(2020)[2160P/MKV/663MB]

[复制链接]

2214

主题

2500

帖子

2万

积分

超级版主

Rank: 8Rank: 8

积分
20589
 楼主| 发表于 2021-2-4 11:23:33 | 显示全部楼层 |阅读模式
БАЛИ - ОСТРОВ БОГОВ.mkv_20210204_111530.779.jpg БАЛИ - ОСТРОВ БОГОВ.mkv_20210204_111543.188.jpg БАЛИ - ОСТРОВ БОГОВ.mkv_20210204_111555.700.jpg БАЛИ - ОСТРОВ БОГОВ.mkv_20210204_111603.164.jpg БАЛИ - ОСТРОВ БОГОВ.mkv_20210204_111609.205.jpg БАЛИ - ОСТРОВ БОГОВ.mkv_20210204_111616.604.jpg БАЛИ - ОСТРОВ БОГОВ.mkv_20210204_111625.051.jpg БАЛИ - ОСТРОВ БОГОВ.mkv_20210204_111656.940.jpg БАЛИ - ОСТРОВ БОГОВ.mkv_20210204_111703.643.jpg БАЛИ - ОСТРОВ БОГОВ.mkv_20210204_111709.387.jpg БАЛИ - ОСТРОВ БОГОВ.mkv_20210204_111728.788.jpg БАЛИ - ОСТРОВ БОГОВ.mkv_20210204_111747.300.jpg

有关信息
标题:巴厘岛-众神之岛
发行年份: 2020
国家/地区: 印度尼西亚
时间: 00:04 : 03
类型: 种类
导演:马丁·扬森

关于电影:

        无论巴厘岛听起来多么陈腐,它都是一个与众不同的岛屿,壮丽的自然和美丽的风景,友善的人,美味的食物以及他们与众不同的文化表达。


General
Complete name                  : 巴厘岛-众神之岛(2020)WEBRip 2160p.mkv
Format                         : Matroska
Format version                 : Version 4
File size                      : 663 MiB
Duration                       : 4 min 3 s
Overall bit rate               : 22.9 Mb/s
Encoded date                   : UTC 2021-02-03 19:18:44
Writing application            : mkvmerge v53.0.0 ('Fool's Gold') 64-bit
Writing library                : libebml v1.4.1 + libmatroska v1.6.2

Video
ID                             : 1
Format                         : AVC
Format/Info                    : Advanced Video Codec
Format profile                 : High@L5.2
Format settings                : CABAC / 5 Ref Frames
Format settings, CABAC         : Yes
Format settings, Reference fra : 5 frames
Codec ID                       : V_MPEG4/ISO/AVC
Duration                       : 4 min 3 s
Bit rate                       : 22.6 Mb/s
Width                          : 3 840 pixels
Height                         : 2 160 pixels
Display aspect ratio           : 16:9
Frame rate mode                : Constant
Frame rate                     : 24.000 FPS
Color space                    : YUV
Chroma subsampling             : 4:2:0
Bit depth                      : 8 bits
Scan type                      : Progressive
Bits/(Pixel*Frame)             : 0.114
Stream size                    : 656 MiB (99%)
Writing library                : x264 core 159 r10 1771b55
Encoding settings              : cabac=1 / ref=5 / deblock=1:0:0 / analyse=0x3:0x113 / me=hex / subme=8 / psy=1 / psy_rd=1.00:0.00 / mixed_ref=1 / me_range=16 / chroma_me=1 / trellis=2 / 8x8dct=1 / cqm=0 / deadzone=21,11 / fast_pskip=1 / chroma_qp_offset=-2 / threads=48 / lookahead_threads=8 / sliced_threads=0 / nr=0 / decimate=1 / interlaced=0 / bluray_compat=0 / stitchable=1 / constrained_intra=0 / bframes=3 / b_pyramid=2 / b_adapt=2 / b_bias=0 / direct=3 / weightb=1 / open_gop=0 / weightp=2 / keyint=infinite / keyint_min=24 / scenecut=40 / intra_refresh=0 / rc_lookahead=50 / rc=crf / mbtree=1 / crf=20.0 / qcomp=0.60 / qpmin=5 / qpmax=69 / qpstep=4 / vbv_maxrate=24200 / vbv_bufsize=66000 / crf_max=0.0 / nal_hrd=none / filler=0 / ip_ratio=1.40 / aq=1:1.00
Default                        : Yes
Forced                         : No
Color range                    : Limited
Color primaries                : BT.709
Transfer characteristics       : BT.709
Matrix coefficients            : BT.709

Audio
ID                             : 2
Format                         : AAC LC
Format/Info                    : Advanced Audio Codec Low Complexity
Codec ID                       : A_AAC-2
Duration                       : 4 min 3 s
Bit rate                       : 253 kb/s
Channel(s)                     : 2 channels
Channel layout                 : L R
Sampling rate                  : 48.0 kHz
Frame rate                     : 46.875 FPS (1024 SPF)
Compression mode               : Lossy
Stream size                    : 7.34 MiB (1%)
Default                        : Yes
Forced                         : No



游客,如果您要查看本帖隐藏内容请回复




.
回复

使用道具 举报

0

主题

1173

帖子

3535

积分

4K家园VIP

Rank: 9Rank: 9Rank: 9

积分
3535
发表于 2021-2-4 11:23:39 | 显示全部楼层
回复 支持 反对

使用道具 举报

0

主题

2826

帖子

8739

积分

4K家园VIP

Rank: 9Rank: 9Rank: 9

积分
8739
发表于 2021-2-4 11:43:43 | 显示全部楼层
印度尼西亚巴厘岛-众神之岛4k
回复 支持 反对

使用道具 举报

0

主题

16

帖子

367

积分

4K家园VIP

Rank: 9Rank: 9Rank: 9

积分
367
发表于 2021-2-4 12:17:44 | 显示全部楼层

印度尼西亚巴厘岛-众神之岛4k
回复 支持 反对

使用道具 举报

0

主题

10

帖子

77

积分

新手上路

Rank: 1

积分
77
发表于 2021-2-4 15:29:53 | 显示全部楼层
纪录片吗,还是mv

回复 支持 反对

使用道具 举报

0

主题

1

帖子

6

积分

新手上路

Rank: 1

积分
6
发表于 2021-2-4 20:28:29 来自手机 | 显示全部楼层
印度尼西亚巴厘岛-众神之岛4k
回复 支持 反对

使用道具 举报

0

主题

1

帖子

9

积分

4K家园VIP

Rank: 9Rank: 9Rank: 9

积分
9
发表于 2021-2-4 20:56:55 | 显示全部楼层
谢谢楼主分享
回复 支持 反对

使用道具 举报

0

主题

1

帖子

6

积分

新手上路

Rank: 1

积分
6
发表于 2021-2-4 21:21:07 | 显示全部楼层
厘岛-众神之岛(2020)[2160P/MKV/663MB
回复 支持 反对

使用道具 举报

0

主题

1

帖子

6

积分

新手上路

Rank: 1

积分
6
发表于 2021-2-4 21:49:38 来自手机 | 显示全部楼层
给你介绍了
回复 支持 反对

使用道具 举报

49

主题

1339

帖子

3877

积分

4K家园VIP

Rank: 9Rank: 9Rank: 9

积分
3877
发表于 2021-2-7 15:47:20 | 显示全部楼层
谢谢楼主
回复 支持 反对

使用道具 举报

您需要登录后才可以回帖 登录 | 立即注册

本版积分规则

精彩图文
Archiver|手机版|TAG|Sitemap|新帖|专题|联系我们:邮箱: 4kjia.com@gmail.com   

4k家园   ©2019