[4K UHD 蓝光原盘] 《逃出克隆岛/神秘岛/谎岛叛变(俄版)》4K蓝光REMUX 版本下载

[复制链接]

758

主题

778

帖子

1万

积分

超级版主

Rank: 8Rank: 8

积分
10205
 楼主| 发表于 2021-2-8 12:42:48 | 显示全部楼层 |阅读模式
QQ图片20210208123010_meitu_1_副本_meitu_3.jpg

◎译  名 逃出克隆岛/神秘岛/谎岛叛变/绝地再生/孤岛
◎片  名 The Island
◎年  代 2005
◎国  家 美国
◎类  别 动作/科幻/惊悚
◎语  言 英语/国语
◎字  幕 中文字幕
◎IMDB评分  6.8/10 from 203,086 users
◎IMDB链接  http://www.imdb.com/title/tt0399201/
◎片  长 136 Mins
◎导  演 迈克尔·贝 Michael Bay
◎主  演 伊万·麦克格雷格 Ewan McGregor  ....Lincoln Six Echo/Tom Lincoln
      斯嘉丽·约翰逊 Scarlett Johansson  ....Jordan Two Delta/Sarah Jordan
      杰曼·翰苏 Djimon Hounsou  ....Albert Laurent
      肖恩·宾 Sean Bean  ....Merrick
      史蒂夫·布西密 Steve Buscemi  ....McCord
      迈克·克拉克·邓肯 Michael Clarke Duncan  ....Starkweather
      杰米·麦克布莱德 Jamie McBride  ....Laurent Team Member
      格兰特·加里逊 Grant Garrison  ....Censor
      肖妮·史密斯 Shawnee Smith  ....Suzie
      唐·迈克尔·保罗 Don Michael Paul  ....Bar Guy
      约翰·安顿 John Anton  ....Clone (uncredited)
      玛丽·卡斯特罗 Mary Castro  ....Busty Dancer in Bar (uncredited)
      金·寇兹 Kim Coates  ....Charles Whitman (uncredited)
      罗伯特·奥康纳 Robert O'Connor  ....Business Man (uncredited)
      伊桑·菲利普斯 Ethan Phillips  ....Jones Three Echo
      Brian Stepanek  ....Gandu Three Echo
      Noa Tishby  ....Community Announcer
      Siobhan Flynn  ....Lima One Alpha
      Troy Blendell  ....Laurent Team Member
      凯文·麦克科 Kevin McCorkle  ....Laurent Team Member
      Gary Nickens  ....Laurent Team Member
      Kathleen Rose Perkins  ....Laurent Team Member
      Richard Whiten  ....Laurent Team Member
      Max Baker  ....Carnes
      Phil Abrams  ....Harvest Doctor
      Svetlana Efremova  ....Harvest Midwife
      Katy Boyer  ....Harvest Surgeon
      Randy Oglesby  ....Harvest Surgeon
      Yvette Nicole Brown  ....Harvest Nurse
      Taylor Gilbert  ....Harvest Nurse
      Wendy Haines  ....Harvest Nurse
      Tim Halligan  ....Institute Coroner

◎简  介 

  林肯(伊旺麦奎格)是一名住在彷彿世外桃源却拥有21世纪中叶先进科技的百姓,和所有其他居民一样,林肯希望自己雀屏中选成为神祕岛的访客,报导上说那是地球上最后一片净土,然而林肯随即发现所有他存在的证据全是谎言,他与设施内所有居民一样都是复制人,生存的唯一目的是提供给宿主一个备用身分。明白自己所剩时间不多,林肯大胆伙同一名美艳邻居(史嘉蕾裘韩森)展开逃亡,并寻找身世之谜。

  男青年林肯·6E(伊万·迈克格雷戈饰)以及乔丹·2D(斯嘉丽·约翰森)和数百名居民居住在二十一世纪中叶的一栋与世隔绝的社区。在这栋受到严密控管的高科技大楼中,他们和其它的居民一样,每天生活的一举一动都受到“组织”的监控,这种监控行为美其名约是为了他们的身心健康着想,而幕后却隐藏着不为人知的秘密。而想要离开这种没有自由的生活,唯一的希望就是被选中前往所谓的“小岛”。因为他们被告知,在历经一场生态浩劫之后,除了居住在这里的人将有幸得以生还外,全世界的人类都将罹难,而“小岛”就是地球仅存的未受污染的人间净土。

  但是林肯近来却一直做同一个无法解释的噩梦,他变得焦躁不安,而且对这个受到严格监控的生活环境产生极大的怀疑,这种好奇心竟然让他发现一个骇人的事实,那就是他生活的一切都是个谎言,“小岛”这座人间净土更是一个残酷的幌子,其实包括他和乔丹在内的所有居民,最后都难逃一死,他们都是“小岛”居民们的克隆人,他们的存在只是为了给他们的“原型”提供各种更换用的身体零件,他们死后的价值远比生前更高。就在危机降临之前,林肯和乔丹决定大胆地逃出这个虚伪的乌托邦,进入他们从来不知道的真实世界。他们逃到外面的世界,并远离“组织”的监控之后,这一对男女长久以来建立出来的情谊,逐渐转变成更深的感情,但是组织的势力强大,他们为了猎捕他们不择手对、不计代价,而林肯与乔丹则只有一个目标,那就是活下去……

  故事发生在距今并不遥远的二十一世纪中期,主角林肯6-E(伊万·迈克格雷格  饰)和几百个伙伴生活在一个类似于乌托邦的地下社会中,在他们周围是先进的精密仪器,有条不紊的生活节奏和高效智能的防御系统,虽然终日不见天日,但根据基地科学家的描述,在他们的头上,整个星球已经被核战彻底地污染,已经没有任何生物能够在那里生存。

  乌托邦的生活虽然一切井井有条,但自然和自由更令人向往,所有基地的居民都盼望著一个抽签的机会,幸运者将会被送到最后一个未被污染的地方,一个叫‘The Island’的世外桃源,而这一次获得这项荣誉的是林肯6-E的女朋友,美丽的乔丹2-D(斯嘉丽·约翰逊  饰)。由于基地管理者的疏忽,一只外面世界的飞蛾飞进了这座封闭已久的地下城市,它的出现令林肯6-E疑窦顿生,因为按照基地管理者的说法,所有的生物都在核战中灭绝了。

  在飞蛾的带领下,林肯6-E来到了基地的中心,在那里他看到自己从前被选中前往‘The  Island’的朋友斯塔克威泽,但展现在面前的并非描述中的美丽,基地的科学家正为他施行手术,他的器官被取出送出基地,至此林肯6-E终于明白:自己的生活其实一个巨大的谎言,他们都是被克隆组织控制的克隆人,他们存在的意义只是为本体提供新鲜健康的器官。

  得以真相的林肯6-E带著乔丹2-D逃离基地,进入他们从未涉足的现实生活之中,现在他要前往洛杉基找到自己的本体,解开关于自己身世的最后的秘密,但此时国家特工和基地组织的杀手已经将他们锁定为最危险的目标,一场猎杀和抗争,追逐与逃脱的斗争已经拉开了序幕……


Media Info
General

Complete name :
Format : Matroska
Format version : Version 4
File size : 73.0 GiB
Duration : 2 h 16 min
Overall bit rate mode : Variable
Overall bit rate : 76.9 Mb/s
Movie name : The.Island.2005.1080p.BluRay.x264.DTS-WiKi
Encoded date : UTC 2020-12-08 23:01:24
Writing application : mkvmerge v51.0.0 ('I Wish') 64-bit
Writing library : libebml v1.4.0 + libmatroska v1.6.2

Video
ID : 1
Format : AVC
Format/Info : Advanced Video Codec
Format profile : Baseline@L5.1
Format settings : 1 Ref Frames
Format settings, CABAC : No
Format settings, Reference fra : 1 frame
Format settings, GOP : M=1, N=12
Codec ID : V_MPEG4/ISO/AVC
Duration : 2 h 16 min
Bit rate : 66.0 Mb/s
Width : 3 840 pixels
Height : 2 160 pixels
Display aspect ratio : 16:9
Frame rate mode : Constant
Frame rate : 23.976 (24000/1001) FPS
Color space : YUV
Chroma subsampling : 4:2:0
Bit depth : 8 bits
Scan type : Progressive
Bits/(Pixel*Frame) : 0.332
Stream size : 62.7 GiB (86%)
Writing library : x264 core 157 r2970 5493be8
Encoding settings : cabac=0 / ref=1 / deblock=0:0:0 / analyse=0:0 / me=dia / subme=0 / psy=1 / psy_rd=1.00:0.00 / mixed_ref=0 / me_range=16 / chroma_me=1 / trellis=0 / 8x8dct=0 / cqm=0 / deadzone=21,11 / fast_pskip=1 / chroma_qp_offset=0 / threads=8 / lookahead_threads=1 / sliced_threads=0 / nr=0 / decimate=1 / interlaced=0 / bluray_compat=0 / constrained_intra=0 / bframes=0 / weightp=0 / keyint=12 / keyint_min=1 / scenecut=0 / intra_refresh=0 / rc=crf / mbtree=0 / crf=17.0 / qcomp=0.60 / qpmin=0 / qpmax=69 / qpstep=4 / ip_ratio=1.40 / aq=0
Default : Yes
Forced : No
Color range : Limited
Color primaries : BT.709
Transfer characteristics : BT.709
Matrix coefficients : BT.709

Audio #1
ID : 2
Format : AC-3
Format/Info : Audio Coding 3
Commercial name : Dolby Digital
Codec ID : A_AC3
Duration : 2 h 16 min
Bit rate mode : Constant
Bit rate : 640 kb/s
Channel(s) : 6 channels
Channel layout : L R C LFE Ls Rs
Sampling rate : 48.0 kHz
Frame rate : 31.250 FPS (1536 SPF)
Compression mode : Lossy
Stream size : 623 MiB (1%)
Title : Dub
Language : Russian
Service kind : Complete Main
Default : Yes
Forced : Yes

Audio #2
ID : 3
Format : DTS XLL
Format/Info : Digital Theater Systems
Commercial name : DTS-HD Master Audio
Codec ID : A_DTS
Duration : 2 h 16 min
Bit rate mode : Variable
Bit rate : 4 376 kb/s
Channel(s) : 6 channels
Channel layout : C L R Ls Rs LFE
Sampling rate : 48.0 kHz
Frame rate : 93.750 FPS (512 SPF)
Bit depth : 24 bits
Compression mode : Lossless
Stream size : 4.16 GiB (6%)
Title : MVO (Tycoon)
Language : Russian
Default : No
Forced : No

Audio #3
ID : 4
Format : AC-3
Format/Info : Audio Coding 3
Commercial name : Dolby Digital
Codec ID : A_AC3
Duration : 2 h 15 min
Bit rate mode : Constant
Bit rate : 384 kb/s
Channel(s) : 6 channels
Channel layout : L R C LFE Ls Rs
Sampling rate : 48.0 kHz
Frame rate : 31.250 FPS (1536 SPF)
Compression mode : Lossy
Delay relative to video : 4 s 620 ms
Stream size : 373 MiB (0%)
Title : AVO (Гаврилов)
Language : Russian
Service kind : Complete Main
Default : No
Forced : No

Audio #4
ID : 5
Format : DTS
Format/Info : Digital Theater Systems
Codec ID : A_DTS
Duration : 2 h 15 min
Bit rate mode : Constant
Bit rate : 755 kb/s
Channel(s) : 6 channels
Channel layout : C L R Ls Rs LFE
Sampling rate : 48.0 kHz
Frame rate : 93.750 FPS (512 SPF)
Bit depth : 24 bits
Compression mode : Lossy
Delay relative to video : 4 s 622 ms
Stream size : 734 MiB (1%)
Title : AVO (Королев)
Language : Russian
Default : No
Forced : No

Audio #5
ID : 6
Format : AC-3
Format/Info : Audio Coding 3
Commercial name : Dolby Digital
Codec ID : A_AC3
Duration : 2 h 16 min
Bit rate mode : Constant
Bit rate : 192 kb/s
Channel(s) : 2 channels
Channel layout : L R
Sampling rate : 48.0 kHz
Frame rate : 31.250 FPS (1536 SPF)
Compression mode : Lossy
Delay relative to video : 4 s 600 ms
Stream size : 187 MiB (0%)
Title : Dub
Language : Ukrainian
Service kind : Complete Main
Default : No
Forced : No

Audio #6
ID : 7
Format : DTS XLL
Format/Info : Digital Theater Systems
Commercial name : DTS-HD Master Audio
Codec ID : A_DTS
Duration : 2 h 16 min
Bit rate mode : Variable
Bit rate : 4 391 kb/s
Channel(s) : 6 channels
Channel layout : C L R Ls Rs LFE
Sampling rate : 48.0 kHz
Frame rate : 93.750 FPS (512 SPF)
Bit depth : 24 bits
Compression mode : Lossless
Stream size : 4.17 GiB (6%)
Title : Original
Language : English
Default : No
Forced : No

Audio #7
ID : 8
Format : AC-3
Format/Info : Audio Coding 3
Commercial name : Dolby Digital
Codec ID : A_AC3
Duration : 2 h 16 min
Bit rate mode : Constant
Bit rate : 128 kb/s
Channel(s) : 2 channels
Channel layout : L R
Sampling rate : 48.0 kHz
Frame rate : 31.250 FPS (1536 SPF)
Compression mode : Lossy
Stream size : 125 MiB (0%)
Title : Comments
Language : English
Service kind : Complete Main
Default : No
Forced : No

Text #1
ID : 9
Format : UTF-8
Codec ID : S_TEXT/UTF8
Codec ID/Info : UTF-8 Plain Text
Duration : 2 h 1 min
Bit rate : 0 b/s
Count of elements : 26
Stream size : 883 Bytes (0%)
Title : Forced
Language : Russian
Default : Yes
Forced : Yes

Text #2
ID : 10
Format : UTF-8
Codec ID : S_TEXT/UTF8
Codec ID/Info : UTF-8 Plain Text
Duration : 2 h 15 min
Bit rate : 71 b/s
Count of elements : 1390
Stream size : 71.1 KiB (0%)
Title : Full
Language : Russian
Default : No
Forced : No

Text #3
ID : 11
Format : UTF-8
Codec ID : S_TEXT/UTF8
Codec ID/Info : UTF-8 Plain Text
Duration : 2 h 13 min
Bit rate : 48 b/s
Count of elements : 1386
Stream size : 47.8 KiB (0%)
Title : Full
Language : English
Default : No
Forced : No

Text #4
ID : 12
Format : UTF-8
Codec ID : S_TEXT/UTF8
Codec ID/Info : UTF-8 Plain Text
Duration : 2 h 3 min
Bit rate : 53 b/s
Count of elements : 1490
Stream size : 48.1 KiB (0%)
Title : Full
Language : French
Default : No
Forced : No

Text #5
ID : 13
Format : UTF-8
Codec ID : S_TEXT/UTF8
Codec ID/Info : UTF-8 Plain Text
Duration : 2 h 4 min
Bit rate : 49 b/s
Count of elements : 1395
Stream size : 45.1 KiB (0%)
Title : Full
Language : Spanish
Default : No
Forced : No



首发俄版4K蓝光REMUX资源,无视迅雷下载软件,推荐使用qBittorrent等下载软件,有条件的推荐115更好的下载软件!
逃出克隆岛(73.05GB)Island, The.2005.BDREMUX.AI_UPSCALE_3840x2160_alq-8_SDR_Finaljian
游客,如果您要查看本帖隐藏内容请回复





.
回复

使用道具 举报

31

主题

1388

帖子

3888

积分

4K家园VIP

Rank: 9Rank: 9Rank: 9

积分
3888
发表于 2021-2-8 12:44:42 | 显示全部楼层
楼主这资源不错,我收藏了
回复 支持 反对

使用道具 举报

0

主题

2878

帖子

8813

积分

4K家园VIP

Rank: 9Rank: 9Rank: 9

积分
8813
发表于 2021-2-8 13:12:23 | 显示全部楼层
太好啦&萬分感謝版主的無私發佈分享%
回复 支持 反对

使用道具 举报

0

主题

1

帖子

19

积分

新手上路

Rank: 1

积分
19
发表于 2021-2-8 15:40:46 | 显示全部楼层
回复

使用道具 举报

0

主题

2

帖子

9

积分

新手上路

Rank: 1

积分
9
发表于 2021-2-8 16:57:16 | 显示全部楼层
太好啦&萬分感謝版主
回复 支持 反对

使用道具 举报

0

主题

3

帖子

26

积分

新手上路

Rank: 1

积分
26
发表于 2021-2-9 02:15:53 | 显示全部楼层
牛逼 顶!!!!
回复

使用道具 举报

0

主题

26

帖子

312

积分

新手上路

Rank: 1

积分
312
发表于 2021-2-9 19:51:23 | 显示全部楼层
好片  感謝分享
回复 支持 反对

使用道具 举报

0

主题

330

帖子

1138

积分

注册会员

Rank: 2

积分
1138
发表于 2021-2-9 22:04:44 | 显示全部楼层
感谢楼主分享
回复 支持 反对

使用道具 举报

1

主题

646

帖子

9188

积分

4K家园VIP

Rank: 9Rank: 9Rank: 9

积分
9188
发表于 2021-2-9 22:20:47 | 显示全部楼层
6666666666
回复 支持 反对

使用道具 举报

0

主题

33

帖子

998

积分

4K家园VIP

Rank: 9Rank: 9Rank: 9

积分
998
发表于 2021-2-10 21:05:30 | 显示全部楼层
速度太慢了
回复 支持 反对

使用道具 举报

您需要登录后才可以回帖 登录 | 立即注册

本版积分规则

精彩图文
Archiver|手机版|TAG|Sitemap|新帖|专题|联系我们:邮箱: 4kjia.com@gmail.com   

4k家园   ©2019