[4K MV] 2021 HyunA - 好女孩[Bugs! ](alang) [2160P /MP4/990MB]

[复制链接]

2214

主题

2500

帖子

2万

积分

超级版主

Rank: 8Rank: 8

积分
20589
 楼主| 发表于 2021-2-9 12:21:48 | 显示全部楼层 |阅读模式
本帖最后由 叽里呱啦 于 2021-2-10 13:39 编辑

HyunA - Good Girl [Bugs! 2160p](2021 4Kfps).mp4_20210209_115915.576_meitu_1.jpg HyunA - Good Girl [Bugs! 2160p](2021 4Kfps).mp4_20210209_115928.800_meitu_2.jpg HyunA - Good Girl [Bugs! 2160p](2021 4Kfps).mp4_20210209_115957.992_meitu_3.jpg HyunA - Good Girl [Bugs! 2160p](2021 4Kfps).mp4_20210209_120245.624.jpg HyunA - Good Girl [Bugs! 2160p](2021 4Kfps).mp4_20210209_120548.903_meitu_5.jpg HyunA - Good Girl [Bugs! 2160p](2021 4Kfps).mp4_20210209_120010.912_meitu_4.jpg

General
Complete name                  : 2021 HyunA - 好女孩[Bugs! 2160p](alangQQ365530128)(2021 4K@25fpsfps).mp4
Format                         : MPEG-4
Format profile                 : Base Media
Codec ID                       : isom (isom/iso2/avc1/mp41)
File size                      : 1 015 MiB
Duration                       : 3 min 3 s
Overall bit rate               : 46.4 Mb/s
Writing application            : Lavf55.12.100

Video
ID                             : 2
Format                         : AVC
Format/Info                    : Advanced Video Codec
Format profile                 : High@L5.1
Format settings                : CABAC / 4 Ref Frames
Format settings, CABAC         : Yes
Format settings, Reference fra : 4 frames
Codec ID                       : avc1
Codec ID/Info                  : Advanced Video Coding
Duration                       : 3 min 3 s
Bit rate                       : 46.1 Mb/s
Width                          : 3 840 pixels
Height                         : 2 160 pixels
Display aspect ratio           : 16:9
Frame rate mode                : Variable
Frame rate                     : 23.976 FPS
Minimum frame rate             : 23.807 FPS
Maximum frame rate             : 24.409 FPS
Color space                    : YUV
Chroma subsampling             : 4:2:0
Bit depth                      : 8 bits
Scan type                      : Progressive
Bits/(Pixel*Frame)             : 0.232
Stream size                    : 1 008 MiB (99%)
Writing library                : x264 core 157 r2970 5493be8
Encoding settings              : cabac=1 / ref=3 / deblock=1:0:0 / analyse=0x3:0x113 / me=hex / subme=7 / psy=1 / psy_rd=1.00:0.00 / mixed_ref=1 / me_range=16 / chroma_me=1 / trellis=1 / 8x8dct=1 / cqm=0 / deadzone=21,11 / fast_pskip=1 / chroma_qp_offset=-2 / threads=24 / lookahead_threads=4 / sliced_threads=0 / nr=0 / decimate=1 / interlaced=0 / bluray_compat=0 / constrained_intra=0 / bframes=3 / b_pyramid=2 / b_adapt=1 / b_bias=0 / direct=1 / weightb=1 / open_gop=0 / weightp=2 / keyint=250 / keyint_min=23 / scenecut=40 / intra_refresh=0 / rc_lookahead=40 / rc=crf / mbtree=1 / crf=20.0 / qcomp=0.60 / qpmin=0 / qpmax=69 / qpstep=4 / ip_ratio=1.40 / aq=1:1.00
Language                       : English
Codec configuration box        : avcC

Audio
ID                             : 1
Format                         : AAC LC
Format/Info                    : Advanced Audio Codec Low Complexity
Codec ID                       : mp4a-40-2
Duration                       : 3 min 3 s
Bit rate mode                  : Constant
Bit rate                       : 317 kb/s
Channel(s)                     : 2 channels
Channel layout                 : L R
Sampling rate                  : 48.0 kHz
Frame rate                     : 46.875 FPS (1024 SPF)
Compression mode               : Lossy
Stream size                    : 6.95 MiB (1%)
Language                       : English
Default                        : Yes
Alternate group                : 1


HyunA - Good Girl [Bugs! 2160p](2021 4Kfps).mp4.jpg ezgif.com-video-to-gif.gif



无需金币下载
游客,如果您要查看本帖隐藏内容请回复

新做的种子,拜托大家自觉做种,另外提供2010-2021年珍藏(4K、8K(MV,演示视)珍高清晰高质量硬盘拷贝(150多GB左右),需要的请内信告知!谢谢!




.
回复

使用道具 举报

2

主题

1190

帖子

3586

积分

4K家园VIP

Rank: 9Rank: 9Rank: 9

积分
3586
发表于 2021-2-9 12:22:00 来自手机 | 显示全部楼层
我擦!我要沙发!
回复 支持 反对

使用道具 举报

0

主题

7

帖子

20

积分

新手上路

Rank: 1

积分
20
发表于 2021-2-9 19:09:31 | 显示全部楼层
wangpan 3q
回复

使用道具 举报

0

主题

2826

帖子

8739

积分

4K家园VIP

Rank: 9Rank: 9Rank: 9

积分
8739
发表于 2021-2-10 00:11:35 | 显示全部楼层
太好啦&萬分感謝版主的無私發佈分享%
回复 支持 反对

使用道具 举报

0

主题

6

帖子

24

积分

新手上路

Rank: 1

积分
24
发表于 2021-2-10 16:51:30 | 显示全部楼层
下载试试电视机效果如何
感谢分享
回复 支持 反对

使用道具 举报

56

主题

1311

帖子

3767

积分

4K家园VIP

Rank: 9Rank: 9Rank: 9

积分
3767
发表于 2021-2-10 19:10:25 | 显示全部楼层
没看懂
回复 支持 反对

使用道具 举报

0

主题

8

帖子

23

积分

新手上路

Rank: 1

积分
23
发表于 2021-2-11 00:12:37 | 显示全部楼层
好女孩吗。高清看看是不是真的是好女孩
回复 支持 反对

使用道具 举报

0

主题

1594

帖子

4328

积分

中级会员

Rank: 4

积分
4328
发表于 2021-2-12 15:13:47 来自手机 | 显示全部楼层
路过
回复 支持 反对

使用道具 举报

0

主题

5

帖子

18

积分

新手上路

Rank: 1

积分
18
发表于 2021-2-13 15:23:37 来自手机 | 显示全部楼层
4K家园资源不错,前排支持
回复 支持 反对

使用道具 举报

53

主题

1415

帖子

4031

积分

4K家园VIP

Rank: 9Rank: 9Rank: 9

积分
4031
发表于 2021-2-15 12:25:45 | 显示全部楼层
啊啊啊啊啊啊啊啊啊啊啊
回复 支持 反对

使用道具 举报

您需要登录后才可以回帖 登录 | 立即注册

本版积分规则

精彩图文
Archiver|手机版|TAG|Sitemap|新帖|专题|联系我们:邮箱: 4kjia.com@gmail.com   

4k家园   ©2019