[4K UHD 蓝光原盘] 《变脸/夺面双雄(港)(俄版)》4K蓝光REMUX 版本下载

  [复制链接]

809

主题

833

帖子

1万

积分

超级版主

Rank: 8Rank: 8

积分
10773
 楼主| 发表于 2021-2-10 12:27:44 | 显示全部楼层 |阅读模式
本帖最后由 叽里呱啦 于 2021-2-10 21:48 编辑

变脸 4K蓝光海报.jpg

◎译  名 变脸/夺命双雄/夺面双雄(港)
◎片  名 Face/Off
◎年  代 1997
◎产  地 美国
◎类  别 动作 / 科幻 / 惊悚 / 犯罪
◎语  言 英语,国语
◎上映日期 1997-06-27(美国)
◎IMDb评分  7.2/10 from 347191 users
◎IMDb链接  https://www.imdb.com/title/tt0119094/
◎豆瓣评分 8.5/10 from 328298 users
◎豆瓣链接 https://movie.douban.com/subject/1292659/
◎片  长 138分钟
◎整理链接 https://www.uump4.me/
◎导  演 吴宇森 John Woo
◎编  剧 麦克·韦柏 Mike Werb / 迈克尔·科拉里 Michael Colleary
◎主  演 约翰·特拉沃尔塔 John Travolta
       尼古拉斯·凯奇 Nicolas Cage
       琼·艾伦 Joan Allen
       亚历桑德罗·尼沃拉 Alessandro Nivola
       吉娜·格申 Gina Gershon
       多米尼克·斯万 Dominique Swain
       尼克·卡萨维蒂 Nick Cassavetes
       哈威·普雷斯内尔 Harve Presnell
       科鲁姆·费奥瑞 Colm Feore
       约翰·卡洛·林奇 John Carroll Lynch
       希·庞德 CCH Pounder
       罗伯特·维斯多姆 Robert Wisdom
       赵牡丹 Margaret Cho
       詹姆斯·丹顿 James Denton
       马特·罗斯 Matt Ross
       克里斯·鲍尔 Chris Bauer
       迈尔斯·杰弗里 Myles Jeffrey
       大卫·麦克库利 David McCurley
       托马斯·简 Thomas Jane
       汤米·弗拉纳根 Tommy Flanagan
       达纳·史密斯 Dana Smith
       罗密·温莎 Romy Windsor
       保罗•希普 Paul Hipp
       柯克·鲍兹 Kirk Baltz
       劳伦·辛克莱尔 Lauren Sinclair
       本·里德 Ben Reed
       丽莎·博伊尔 Lisa Boyle
       琳达·霍夫曼 Linda Hoffman
       丹尼·马斯特森 Danny Masterson
       迈克尔·罗查 Michael Rocha
       麦克·韦柏 Mike Werb
       梅根·保罗 Megan Paul
       诺姆·卡普顿 Norm Compton


◎简  介

  凯斯特(尼古拉斯•凯奇 Nicolas Cage 饰)是一个恐怖分子,他本想杀死探员西恩(约翰•特拉沃塔 John Travolta 饰),却误杀了西恩的儿子,西恩更与凯斯特结下不共戴天之仇。在逮捕凯斯特归案之后,他以为可以划上句号,却得知凯斯特已经把一枚毒气炸弹投放在某个人群密集的角落。
  为了查出炸弹地点,西恩决定利用整形手术,将昏迷中的凯斯特的脸换在自己身上,去假扮凯斯特身份套出他弟弟说出真相。这件事属于FBI高度机密,只有寥寥几人知情。
  凯斯特醒来,此时他有着西恩的面相。于是他决定将计就计,将知情人杀掉之后,他就变成了西恩……

◎获奖情况

  第70届奥斯卡金像奖  (1998)
  最佳音效剪辑(提名) 佩尔·霍尔伯格 / 马克·P·施特金格尔


Media info

General
Complete name : 变脸 Face Off.1997.BDRemux.AI_UPSCALE_3840x2160_ahq-10_SDR_Finalalang.mkv
Format : Matroska
Format version : Version 4
File size : 73.7 GiB
Duration : 2 h 19 min
Overall bit rate mode : Variable
Overall bit rate : 75.9 Mb/s
Encoded date : UTC 2021-02-07 13:55:02
Writing application : mkvmerge v53.0.0 ('Fool's Gold') 64-bit
Writing library : libebml v1.4.1 + libmatroska v1.6.2

Video
ID : 1
Format : AVC
Format/Info : Advanced Video Codec
Format profile : Baseline@L5.1
Format settings : 1 Ref Frames
Format settings, CABAC : No
Format settings, Reference fra : 1 frame
Format settings, GOP : M=1, N=12
Codec ID : V_MPEG4/ISO/AVC
Duration : 2 h 18 min
Bit rate : 69.9 Mb/s
Width : 3 840 pixels
Height : 2 160 pixels
Display aspect ratio : 16:9
Frame rate mode : Constant
Frame rate : 23.976 (24000/1001) FPS
Color space : YUV
Chroma subsampling : 4:2:0
Bit depth : 8 bits
Scan type : Progressive
Bits/(Pixel*Frame) : 0.351
Stream size : 67.8 GiB (92%)
Writing library : x264 core 157 r2970 5493be8
Encoding settings : cabac=0 / ref=1 / deblock=0:0:0 / analyse=0:0 / me=dia / subme=0 / psy=1 / psy_rd=1.00:0.00 / mixed_ref=0 / me_range=16 / chroma_me=1 / trellis=0 / 8x8dct=0 / cqm=0 / deadzone=21,11 / fast_pskip=1 / chroma_qp_offset=0 / threads=8 / lookahead_threads=1 / sliced_threads=0 / nr=0 / decimate=1 / interlaced=0 / bluray_compat=0 / constrained_intra=0 / bframes=0 / weightp=0 / keyint=12 / keyint_min=1 / scenecut=0 / intra_refresh=0 / rc=crf / mbtree=0 / crf=15.0 / qcomp=0.60 / qpmin=0 / qpmax=69 / qpstep=4 / ip_ratio=1.40 / aq=0
Default : Yes
Forced : No
Color range : Limited
Color primaries : BT.709
Transfer characteristics : BT.709
Matrix coefficients : BT.709

Audio #1
ID : 2
Format : DTS
Format/Info : Digital Theater Systems
Codec ID : A_DTS
Duration : 2 h 19 min
Bit rate mode : Constant
Bit rate : 768 kb/s
Channel(s) : 6 channels
Channel layout : C L R Ls Rs LFE
Sampling rate : 48.0 kHz
Frame rate : 93.750 FPS (512 SPF)
Bit depth : 24 bits
Compression mode : Lossy
Stream size : 764 MiB (1%)
Title : Дубляж
Language : Russian
Default : Yes
Forced : Yes

Audio #2
ID : 3
Format : DTS XLL
Format/Info : Digital Theater Systems
Commercial name : DTS-HD Master Audio
Codec ID : A_DTS
Duration : 2 h 18 min
Bit rate mode : Variable
Bit rate : 2 009 kb/s
Channel(s) : 6 channels
Channel layout : C L R Ls Rs LFE
Sampling rate : 48.0 kHz
Frame rate : 93.750 FPS (512 SPF)
Bit depth : 16 bits
Compression mode : Lossless
Stream size : 1.95 GiB (3%)
Language : English
Default : No
Forced : No

Audio #3
ID : 4
Format : DTS XLL
Format/Info : Digital Theater Systems
Commercial name : DTS-HD Master Audio
Codec ID : A_DTS
Duration : 2 h 18 min
Bit rate mode : Variable
Bit rate : 2 016 kb/s
Channel(s) : 6 channels
Channel layout : C L R Ls Rs LFE
Sampling rate : 48.0 kHz
Frame rate : 93.750 FPS (512 SPF)
Bit depth : 16 bits
Compression mode : Lossless
Stream size : 1.96 GiB (3%)
Title : Живов
Language : Russian
Default : No
Forced : No

Audio #4
ID : 5
Format : AC-3
Format/Info : Audio Coding 3
Commercial name : Dolby Digital
Codec ID : A_AC3
Duration : 2 h 18 min
Bit rate mode : Constant
Bit rate : 448 kb/s
Channel(s) : 6 channels
Channel layout : L R C LFE Ls Rs
Sampling rate : 48.0 kHz
Frame rate : 31.250 FPS (1536 SPF)
Compression mode : Lossy
Stream size : 445 MiB (1%)
Title : MVO
Language : Russian
Service kind : Complete Main
Default : No
Forced : No

Audio #5
ID : 6
Format : DTS
Format/Info : Digital Theater Systems
Codec ID : A_DTS
Duration : 2 h 18 min
Bit rate mode : Constant
Bit rate : 768 kb/s
Channel(s) : 6 channels
Channel layout : C L R Ls Rs LFE
Sampling rate : 48.0 kHz
Frame rate : 93.750 FPS (512 SPF)
Bit depth : 16 bits
Compression mode : Lossy
Stream size : 763 MiB (1%)
Title : Гаврилов
Language : Russian
Default : No
Forced : No

Text #1
ID : 7
Format : PGS
Muxing mode : zlib
Codec ID : S_HDMV/PGS
Codec ID/Info : Picture based subtitle format used on BDs/HD-DVDs
Duration : 2 h 10 min
Bit rate : 21.1 kb/s
Count of elements : 2048
Stream size : 19.7 MiB (0%)
Language : English
Default : No
Forced : No

Text #2
ID : 8
Format : PGS
Muxing mode : zlib
Codec ID : S_HDMV/PGS
Codec ID/Info : Picture based subtitle format used on BDs/HD-DVDs
Duration : 2 h 12 min
Bit rate : 15.9 kb/s
Count of elements : 2044
Stream size : 15.1 MiB (0%)
Language : Russian
Default : No
Forced : No


19370128699237203224_thumb.jpg 28057301849126934388_thumb.jpg 97009975170896070607_thumb.jpg
(PS:非本主题截图)

首发4K蓝光REMUX俄版资源,无视迅雷下载软件,推荐使用qBittorrent等下载软件,有条件的推荐115更好的下载软件!
QQ图片20210210214640.png
游客,如果您要查看本帖隐藏内容请回复



.
回复

使用道具 举报

1

主题

1261

帖子

3601

积分

4K家园VIP

Rank: 9Rank: 9Rank: 9

积分
3601
发表于 2021-2-10 12:28:32 | 显示全部楼层
楼主这资源不错,我收藏了
回复 支持 反对

使用道具 举报

0

主题

3689

帖子

1万

积分

4K家园VIP

Rank: 9Rank: 9Rank: 9

积分
10136
发表于 2021-2-10 15:26:18 | 显示全部楼层
太好啦&萬分感謝版主的無私發佈分享%
回复 支持 反对

使用道具 举报

4

主题

1090

帖子

3298

积分

4K家园VIP

Rank: 9Rank: 9Rank: 9

积分
3298
发表于 2021-2-10 16:20:15 | 显示全部楼层
感谢分享
回复 支持 反对

使用道具 举报

0

主题

14

帖子

343

积分

4K家园VIP

Rank: 9Rank: 9Rank: 9

积分
343
发表于 2021-2-10 16:34:10 | 显示全部楼层
发现一件事,LZ发的很多资源,压根就是没用的,115终身会员飘过
回复 支持 反对

使用道具 举报

0

主题

10

帖子

343

积分

4K家园VIP

Rank: 9Rank: 9Rank: 9

积分
343
发表于 2021-2-10 17:37:54 | 显示全部楼层
非常感谢楼主
回复 支持 反对

使用道具 举报

2

主题

1553

帖子

4251

积分

4K家园VIP

Rank: 9Rank: 9Rank: 9

积分
4251
发表于 2021-2-10 19:01:16 | 显示全部楼层
支持一下楼主,顶起来
回复 支持 反对

使用道具 举报

0

主题

282

帖子

2725

积分

4K家园VIP

Rank: 9Rank: 9Rank: 9

积分
2725
QQ
发表于 2021-2-10 20:11:40 | 显示全部楼层
谢谢楼主分享,收藏了!
回复 支持 反对

使用道具 举报

0

主题

3

帖子

27

积分

新手上路

Rank: 1

积分
27
发表于 2021-2-10 20:29:30 | 显示全部楼层

谢谢楼主分享,收藏了!
回复 支持 反对

使用道具 举报

2275

主题

2564

帖子

2万

积分

超级版主

Rank: 8Rank: 8

积分
21305
发表于 2021-2-10 21:50:00 | 显示全部楼层
77200765 发表于 2021-2-10 16:34
发现一件事,LZ发的很多资源,压根就是没用的,115终身会员飘过



是你下载姿势不对吧,我还是用免费软件下载的
回复 支持 反对

使用道具 举报

您需要登录后才可以回帖 登录 | 立即注册

本版积分规则

精彩图文
Archiver|手机版|TAG|Sitemap|新帖|专题|联系我们:邮箱: 4kjia.com@gmail.com   

4k家园   ©2019