[4K电影] 纪录片《大地》4K高清下载/大小10.40GB

[复制链接]

2210

主题

2494

帖子

2万

积分

超级版主

Rank: 8Rank: 8

积分
20518
 楼主| 发表于 2021-2-18 21:30:24 | 显示全部楼层 |阅读模式
p2382845359.webp_副本_meitu_1.jpg

导演: 扬·阿尔蒂斯-贝特朗 / Michael Pitiot
编剧: Michael Pitiot
主演: 凡妮莎·帕拉迪丝
类型: 纪录片
制片国家/地区: 法国
豆瓣评分:7.8
豆瓣地址:https://movie.douban.com/subject/26879116/
语言: 法语
上映日期: 2015-12-01
片长: 97分钟


简介 · · · · · ·

  《大地》讲述的是生命的故事。导演扬恩·亚瑟-贝特朗和迈克尔·皮托向我们展现了一部生命的史歌。从微小的苔藓到巨大的森林,从树林中的猴子到最神秘的大型动物。在不到10000年的时间里,陆地上的生命就已被人类的崛起所深刻改变。人类社会在地球上越来越孤立。在我们周围是怎样的生命世界?以及关系如何变迁?《大地》是一次穿越生物历史之旅,也是寻找动物之旅,也即我们自己,人类。


General

Complete name                  : 大地(10.40GB)Terra Documentary.2015.2160p.4K.UHD.Master5.mkv
Format                         : Matroska
Format version                 : Version 4
File size                      : 10.4 GiB
Duration                       : 1 h 37 min
Overall bit rate mode          : Variable
Overall bit rate               : 15.3 Mb/s
Movie name                     : Terra Documentary.2015.2160p.4K.UHD.Master5
Encoded date                   : UTC 2019-01-29 20:26:35
Writing application            : mkvmerge v7.9.0 ('Birds') 64bit
Writing library                : libebml v1.3.1 + libmatroska v1.4.2

Video
ID                             : 1
Format                         : VP9
Codec ID                       : V_VP9
Duration                       : 1 h 37 min
Bit rate                       : 15.2 Mb/s
Width                          : 3 840 pixels
Height                         : 2 160 pixels
Display aspect ratio           : 16:9
Frame rate mode                : Variable
Frame rate                     : 25.752 FPS
Bits/(Pixel*Frame)             : 0.071
Stream size                    : 10.4 GiB (99%)
Title                          : Terra Documentary.2015.2160p.4K.UHD.Master5
Default                        : Yes
Forced                         : No

Audio
ID                             : 2
Format                         : Vorbis
Format settings, Floor         : 1
Codec ID                       : A_VORBIS
Duration                       : 1 h 37 min
Bit rate mode                  : Variable
Bit rate                       : 128 kb/s
Channel(s)                     : 2 channels
Sampling rate                  : 44.1 kHz
Frame rate                     : 51.276 FPS (860 SPF)
Compression mode               : Lossy
Stream size                    : 66.3 MiB (1%)
Title                          : French
Writing application            : Google
Language                       : French
Default                        : Yes
Forced                         : No


Terra Documentary.2015.2160p.4K.UHD.Master5.mkv_20210213_195816.685.jpg Terra Documentary.2015.2160p.4K.UHD.Master5.mkv_20210213_195910.309.jpg Terra Documentary.2015.2160p.4K.UHD.Master5.mkv_20210213_195930.197.jpg Terra Documentary.2015.2160p.4K.UHD.Master5.mkv_20210213_195945.477.jpg Terra Documentary.2015.2160p.4K.UHD.Master5.mkv_20210213_200019.885.jpg Terra Documentary.2015.2160p.4K.UHD.Master5.mkv_20210213_200030.198.jpg Terra Documentary.2015.2160p.4K.UHD.Master5.mkv_20210213_200041.477.jpg Terra Documentary.2015.2160p.4K.UHD.Master5.mkv_20210213_200109.893.jpg Terra Documentary.2015.2160p.4K.UHD.Master5.mkv_20210213_200138.909.jpg Terra Documentary.2015.2160p.4K.UHD.Master5.mkv_20210213_200147.237.jpg



游客,如果您要查看本帖隐藏内容请回复



.
回复

使用道具 举报

0

主题

1546

帖子

4240

积分

4K家园VIP

Rank: 9Rank: 9Rank: 9

积分
4240
发表于 2021-2-18 21:30:29 | 显示全部楼层
佩服佩服!
回复 支持 反对

使用道具 举报

0

主题

2686

帖子

8508

积分

4K家园VIP

Rank: 9Rank: 9Rank: 9

积分
8508
发表于 2021-2-18 22:40:45 | 显示全部楼层
太好啦&萬分感謝版主的無私發佈分享%
回复 支持 反对

使用道具 举报

0

主题

38

帖子

237

积分

新手上路

Rank: 1

积分
237
发表于 2021-2-18 23:17:50 | 显示全部楼层
感謝版主的無私發佈分享
回复 支持 反对

使用道具 举报

1

主题

1252

帖子

3592

积分

4K家园VIP

Rank: 9Rank: 9Rank: 9

积分
3592
发表于 2021-2-19 00:21:02 | 显示全部楼层
佩服佩服!
回复 支持 反对

使用道具 举报

0

主题

3

帖子

12

积分

新手上路

Rank: 1

积分
12
发表于 2021-2-19 10:18:05 | 显示全部楼层
回复

使用道具 举报

0

主题

1188

帖子

3392

积分

4K家园VIP

Rank: 9Rank: 9Rank: 9

积分
3392
发表于 2021-2-19 10:47:30 | 显示全部楼层
楼下的接上
回复 支持 反对

使用道具 举报

0

主题

1508

帖子

4072

积分

4K家园VIP

Rank: 9Rank: 9Rank: 9

积分
4072
发表于 2021-2-19 12:34:06 来自手机 | 显示全部楼层
路过
回复 支持 反对

使用道具 举报

1

主题

1218

帖子

3672

积分

4K家园VIP

Rank: 9Rank: 9Rank: 9

积分
3672
发表于 2021-2-19 15:23:54 | 显示全部楼层
纯粹路过,没任何兴趣,仅仅是看在老用户份上回复一下
回复 支持 反对

使用道具 举报

0

主题

1

帖子

10

积分

新手上路

Rank: 1

积分
10
发表于 2021-2-19 18:45:08 | 显示全部楼层
资源真漂亮!
回复 支持 反对

使用道具 举报

您需要登录后才可以回帖 登录 | 立即注册

本版积分规则

精彩图文
Archiver|手机版|TAG|Sitemap|新帖|专题|联系我们:邮箱: 4kjia.com@gmail.com   

4k家园   ©2019