[4K UHD 蓝光原盘] 《特洛伊/特洛伊:木马屠城(俄版)》4K蓝光REMUX 版本下载

  [复制链接]

809

主题

833

帖子

1万

积分

超级版主

Rank: 8Rank: 8

积分
10773
 楼主| 发表于 2021-2-14 13:06:39 | 显示全部楼层 |阅读模式
本帖最后由 没完没了 于 2021-2-14 13:16 编辑

特洛伊  海报.jpg

◎译  名 特洛伊 / 特洛伊:木马屠城
◎片  名 Troy
◎年  代 2004
◎产  地 美国 / 马耳他 / 英国
◎类  别 动作 / 爱情
◎语  言 英语
◎上映日期 2004-05-14(美国) / 2004-06-12(中国大陆)
◎IMDb评分  7.2/10 from 478141 users
◎IMDb链接  https://www.imdb.com/title/tt0332452
◎豆瓣评分 7.5/10 from 120374 users
◎豆瓣链接 https://movie.douban.com/subject/1308751/
◎片  长 196分钟(导演剪辑加长版)
◎导  演 沃尔夫冈·彼德森 Wolfgang Petersen
◎编  剧 戴维·贝尼奥夫 David Benioff
◎主  演 布拉德·皮特 Brad Pitt
       黛安·克鲁格 Diane Kruger
       奥兰多·布鲁姆 Orlando Bloom
       朱利安·格洛弗 Julian Glover
       布莱恩·考克斯 Brian Cox
       内森·琼斯 Nathan Jones
       艾瑞克·巴纳 Eric Bana
       雅各布·史密斯 Jacob Smith
       萝丝·拜恩 Rose Byrne
       彼得·奥图尔 Peter O'Toole



◎简  介  

  在浪漫壮观、引人遐思的古希腊,奥林匹亚众神与人类之间的爱恨传奇至今为人津津乐道,而在这其中,荷马史诗《伊里亚特》所记录的特洛伊之战更是后世剧作家与观者反复演绎的经典作品。当特洛伊王子帕里斯(奥兰多·布鲁姆 Orlando Bloom 饰)受希腊斯巴达国王之邀赴宴之际,却迷恋上了国王的妻子海伦(黛安·克鲁格 Diane Kruger 饰),对方倾国倾城的容貌让他不能自已,遂将海伦带回自己的国家。此举引发了希腊诸国的愤怒,在迈锡尼国王阿伽门侬(布莱恩·考克斯 Brian Cox 饰)的号召下,一支强大的联军浩浩荡荡向特洛伊挺进。在随后长达十年的战争中,阿喀琉斯(布拉德·皮特 Brad Pitt 饰)、奥德修斯(肖恩·宾 Sean Bean 饰)、赫克托尔(艾瑞克·巴纳 Eric Bana 饰)等英雄各逞英豪,谱写了荡气回肠却又令人扼腕唏嘘的传奇史诗……
  本片荣获2004年青年选择奖最佳男主角奖(Brad Pitt)。

◎获奖情况  

  第77届奥斯卡金像奖(2005)
  最佳服装设计(提名) 鲍勃·林伍德

  第28届日本电影学院奖(2005)
  最佳外语片(提名)

  第14届MTV电影奖(2005)
  MTV电影奖 最佳男演员(提名) 布拉德·皮特
  MTV电影奖 最佳打斗(提名) 布拉德·皮特 / 艾瑞克·巴纳


Media Info
General
Complete name : H:\DISC 2\Troy.2004.BD Remux.AI_UPSCALE_3840x2160_alq-8_SDR_Final.mkv
Format : Matroska
Format version : Version 4
File size : 111 GiB
Duration : 3 h 16 min
Overall bit rate mode : Variable
Overall bit rate : 81.1 Mb/s
Encoded date : UTC 2021-01-19 19:44:05
Writing application : mkvmerge v52.0.0 ('Secret For The Mad') 64-bit
Writing library : libebml v1.4.1 + libmatroska v1.6.2

Video
ID : 1
Format : AVC
Format/Info : Advanced Video Codec
Format profile : Baseline@L5.1
Format settings : 1 Ref Frames
Format settings, CABAC : No
Format settings, Reference fra : 1 frame
Format settings, GOP : M=1, N=12
Codec ID : V_MPEG4/ISO/AVC
Duration : 3 h 16 min
Bit rate : 72.0 Mb/s
Width : 3 840 pixels
Height : 2 160 pixels
Display aspect ratio : 16:9
Frame rate mode : Constant
Frame rate : 23.976 (24000/1001) FPS
Color space : YUV
Chroma subsampling : 4:2:0
Bit depth : 8 bits
Scan type : Progressive
Bits/(Pixel*Frame) : 0.362
Stream size : 98.6 GiB (89%)
Writing library : x264 core 157 r2970 5493be8
Encoding settings : cabac=0 / ref=1 / deblock=0:0:0 / analyse=0:0 / me=dia / subme=0 / psy=1 / psy_rd=1.00:0.00 / mixed_ref=0 / me_range=16 / chroma_me=1 / trellis=0 / 8x8dct=0 / cqm=0 / deadzone=21,11 / fast_pskip=1 / chroma_qp_offset=0 / threads=8 / lookahead_threads=1 / sliced_threads=0 / nr=0 / decimate=1 / interlaced=0 / bluray_compat=0 / constrained_intra=0 / bframes=0 / weightp=0 / keyint=12 / keyint_min=1 / scenecut=0 / intra_refresh=0 / rc=crf / mbtree=0 / crf=16.0 / qcomp=0.60 / qpmin=0 / qpmax=69 / qpstep=4 / ip_ratio=1.40 / aq=0
Default : Yes
Forced : No
Color range : Limited
Color primaries : BT.709
Transfer characteristics : BT.709
Matrix coefficients : BT.709

Audio #1
ID : 2
Format : AC-3
Format/Info : Audio Coding 3
Commercial name : Dolby Digital
Codec ID : A_AC3
Duration : 3 h 16 min
Bit rate mode : Constant
Bit rate : 448 kb/s
Channel(s) : 6 channels
Channel layout : L R C LFE Ls Rs
Sampling rate : 48.0 kHz
Frame rate : 31.250 FPS (1536 SPF)
Compression mode : Lossy
Stream size : 628 MiB (1%)
Language : Russian
Service kind : Complete Main
Default : Yes
Forced : Yes

Audio #2
ID : 3
Format : AC-3
Format/Info : Audio Coding 3
Commercial name : Dolby Digital
Codec ID : A_AC3
Duration : 3 h 16 min
Bit rate mode : Constant
Bit rate : 448 kb/s
Channel(s) : 6 channels
Channel layout : L R C LFE Ls Rs
Sampling rate : 48.0 kHz
Frame rate : 31.250 FPS (1536 SPF)
Compression mode : Lossy
Stream size : 628 MiB (1%)
Language : Russian
Service kind : Complete Main
Default : No
Forced : No

Audio #3
ID : 4
Format : DTS XLL
Format/Info : Digital Theater Systems
Commercial name : DTS-HD Master Audio
Codec ID : A_DTS
Duration : 3 h 16 min
Bit rate mode : Variable
Bit rate : 2 270 kb/s
Channel(s) : 6 channels
Channel layout : C L R Ls Rs LFE
Sampling rate : 48.0 kHz
Frame rate : 93.750 FPS (512 SPF)
Bit depth : 16 bits
Compression mode : Lossless
Stream size : 3.11 GiB (3%)
Language : Russian
Default : No
Forced : No

Audio #4
ID : 5
Format : AC-3
Format/Info : Audio Coding 3
Commercial name : Dolby Digital
Codec ID : A_AC3
Duration : 3 h 16 min
Bit rate mode : Constant
Bit rate : 448 kb/s
Channel(s) : 6 channels
Channel layout : L R C LFE Ls Rs
Sampling rate : 48.0 kHz
Frame rate : 31.250 FPS (1536 SPF)
Compression mode : Lossy
Stream size : 628 MiB (1%)
Language : Russian
Service kind : Complete Main
Default : No
Forced : No

Audio #5
ID : 6
Format : AC-3
Format/Info : Audio Coding 3
Commercial name : Dolby Digital
Codec ID : A_AC3
Duration : 3 h 16 min
Bit rate mode : Constant
Bit rate : 448 kb/s
Channel(s) : 6 channels
Channel layout : L R C LFE Ls Rs
Sampling rate : 48.0 kHz
Frame rate : 31.250 FPS (1536 SPF)
Compression mode : Lossy
Stream size : 628 MiB (1%)
Language : Russian
Service kind : Complete Main
Default : No
Forced : No

Audio #6
ID : 7
Format : AC-3
Format/Info : Audio Coding 3
Commercial name : Dolby Digital
Codec ID : A_AC3
Duration : 3 h 16 min
Bit rate mode : Constant
Bit rate : 448 kb/s
Channel(s) : 6 channels
Channel layout : L R C LFE Ls Rs
Sampling rate : 48.0 kHz
Frame rate : 31.250 FPS (1536 SPF)
Compression mode : Lossy
Stream size : 628 MiB (1%)
Language : Ukrainian
Service kind : Complete Main
Default : No
Forced : No

Audio #7
ID : 8
Format : PCM
Format settings : Little / Signed
Codec ID : A_PCM/INT/LIT
Duration : 3 h 16 min
Bit rate mode : Constant
Bit rate : 4 608 kb/s
Channel(s) : 6 channels
Sampling rate : 48.0 kHz
Frame rate : 200.000 FPS (240 SPF)
Bit depth : 16 bits
Stream size : 6.31 GiB (6%)
Language : English
Default : No
Forced : No

Text #1
ID : 9
Format : PGS
Muxing mode : zlib
Codec ID : S_HDMV/PGS
Codec ID/Info : Picture based subtitle format used on BDs/HD-DVDs
Duration : 3 h 4 min
Bit rate : 25.0 kb/s
Count of elements : 2796
Stream size : 33.0 MiB (0%)
Language : Russian
Default : No
Forced : No

Text #2
ID : 10
Format : PGS
Muxing mode : zlib
Codec ID : S_HDMV/PGS
Codec ID/Info : Picture based subtitle format used on BDs/HD-DVDs
Duration : 3 h 13 min
Bit rate : 18.1 kb/s
Count of elements : 2754
Stream size : 25.0 MiB (0%)
Language : English
Default : No
Forced : No



12053393775633546457_thumb.png 29617278174876633097_thumb.png 61443654247641572662_thumb.png 86318922607296402210_thumb.png
(PS:非4K蓝光REMUX截图)

首发4K蓝光REMUX俄版资源,无视迅雷下载软件,推荐使用qBittorrent等下载软件,有条件的推荐115更好的下载软件!

特洛伊/特洛伊:木马屠城(111.11GB)Troy.2004.BD Remux.AI_UPSCALE_3840x2160_alq-8_SDR_Finalalang
游客,如果您要查看本帖隐藏内容请回复





.


回复

使用道具 举报

2

主题

1231

帖子

3551

积分

4K家园VIP

Rank: 9Rank: 9Rank: 9

积分
3551
发表于 2021-2-14 13:08:55 | 显示全部楼层
你们要是有4K资源记得分享,别小气
回复 支持 反对

使用道具 举报

0

主题

52

帖子

94

积分

新手上路

Rank: 1

积分
94
发表于 2021-2-14 16:02:27 | 显示全部楼层
感谢分享
回复

使用道具 举报

0

主题

3689

帖子

1万

积分

4K家园VIP

Rank: 9Rank: 9Rank: 9

积分
10136
发表于 2021-2-14 16:41:55 | 显示全部楼层
太好啦&萬分感謝版主的無私發佈分享%
回复 支持 反对

使用道具 举报

匿名  发表于 2021-2-14 17:53:37
多谢楼主的无私分享。
回复 支持 反对

使用道具

0

主题

5

帖子

18

积分

新手上路

Rank: 1

积分
18
发表于 2021-2-14 18:29:03 | 显示全部楼层

楼主这资源不错,我收藏了
回复 支持 反对

使用道具 举报

0

主题

11

帖子

470

积分

4K家园VIP

Rank: 9Rank: 9Rank: 9

积分
470
发表于 2021-2-14 18:43:43 | 显示全部楼层
谢谢分享 支持
回复 支持 反对

使用道具 举报

0

主题

18

帖子

71

积分

新手上路

Rank: 1

积分
71
发表于 2021-2-14 21:12:42 | 显示全部楼层
感谢楼主精彩分享,辛苦。
回复 支持 反对

使用道具 举报

0

主题

22

帖子

298

积分

新手上路

Rank: 1

积分
298
发表于 2021-2-15 11:17:31 | 显示全部楼层

谢谢大神,新年快乐
回复 支持 反对

使用道具 举报

0

主题

1

帖子

10

积分

新手上路

Rank: 1

积分
10
发表于 2021-2-15 19:19:12 | 显示全部楼层
谢谢分享 经典片源
回复 支持 反对

使用道具 举报

您需要登录后才可以回帖 登录 | 立即注册

本版积分规则

精彩图文
Archiver|手机版|TAG|Sitemap|新帖|专题|联系我们:邮箱: 4kjia.com@gmail.com   

4k家园   ©2019