[4K UHD 蓝光原盘] 《天国王朝/王者天下(台)(俄版)》4K蓝光REMUX 版本下载

  [复制链接]

809

主题

833

帖子

1万

积分

超级版主

Rank: 8Rank: 8

积分
10773
 楼主| 发表于 2021-2-16 14:51:59 | 显示全部楼层 |阅读模式
本帖最后由 没完没了 于 2021-3-23 12:28 编辑

11111_meitu_1_副本.jpg

◎译  名 天国王朝/天国骄雄(港)/王者天下(台)/圣战王朝
◎片  名 Kingdom of Heaven
◎年  代 2005
◎国  家 美国/英国/西班牙/德国/摩洛哥
◎类  别 动作/冒险/历史
◎语  言 英语/阿拉伯语/拉丁语/意大利语
◎上映日期 2005-05-06(美国)
◎IMDb评分  7.2/10 from 194,318 users
◎IMDb链接  http://www.imdb.com/title/tt0320661/
◎豆瓣评分 8.1/10 from 32,413 users
◎豆瓣链接 http://movie.douban.com/subject/1309071/
◎片  长 192分钟(导演剪辑版)
◎导  演 雷德利·斯科特 Ridley Scott
◎主  演 奥兰多·布鲁姆 Orlando Bloom
      伊娃·格林 Eva Green
      爱德华·诺顿 Edward Norton
      连姆·尼森 Liam Neeson
      麦克·辛 Michael Sheen
      艾瑞克·艾伯纳尼 Eriq Ebouaney
      大卫·休里斯 David Thewlis
      杰瑞米·艾恩斯 Jeremy Irons

◎简  介

  《天国王朝》大部分角色基于历史人物而改编,哥伦比亚大学的Hamid Dabashi教授为该片的首席学术顾问。
  十二世纪的法国,青年铁匠贝里昂(奥兰多·布鲁姆 Orlando Bloom 饰)无意间知道自己是十字军将领戈弗雷(连姆·尼森 Liam Neeson 饰)失散多年的私生子。为了寻找救赎,巴利安跟随父亲前往耶路撒冷。骁勇善战加上品格高尚,贝里昂几经征战成为赫赫有名的武士,不但深受国王赏识,美丽的公主西贝拉(伊娃·格林 Eva Green 饰)也对他芳心暗许。而他也深深地被当地陌生而奇特的文化吸引,然而随着战役增加,带来无尽的杀戮和掠夺,贝里昂终于领会父亲训言中和平的真义与生命的真爱。耶路撒冷王故去,新王继位。好战的新王挑起战争,萨拉丁率领撒萨拉逊骑士要收复他们的圣地——耶路撒冷。危急之时,贝里昂挺身而出,誓言捍卫“天国王朝”……
Media Info
General
Complete name :Kingdom of Heaven.2005.BDRemux.AI_UPSCALE_3840x2160_alq-8_SDR_Finalalang
Format : Matroska
Format version : Version 4
File size : 83.7 GiB
Duration : 3 h 9 min
Overall bit rate mode : Variable
Overall bit rate : 63.2 Mb/s
Encoded date : UTC 2021-01-19 18:59:25
Writing application : mkvmerge v52.0.0 ('Secret For The Mad') 64-bit
Writing library : libebml v1.4.1 + libmatroska v1.6.2

Video
ID : 1
Format : AVC
Format/Info : Advanced Video Codec
Format profile : Baseline@L5.1
Format settings : 1 Ref Frames
Format settings, CABAC : No
Format settings, Reference fra : 1 frame
Format settings, GOP : M=1, N=12
Codec ID : V_MPEG4/ISO/AVC
Duration : 3 h 9 min
Bit rate : 58.5 Mb/s
Width : 3 840 pixels
Height : 2 160 pixels
Display aspect ratio : 16:9
Frame rate mode : Constant
Frame rate : 23.976 (24000/1001) FPS
Color space : YUV
Chroma subsampling : 4:2:0
Bit depth : 8 bits
Scan type : Progressive
Bits/(Pixel*Frame) : 0.294
Stream size : 77.5 GiB (93%)
Writing library : x264 core 157 r2970 5493be8
Encoding settings : cabac=0 / ref=1 / deblock=0:0:0 / analyse=0:0 / me=dia / subme=0 / psy=1 / psy_rd=1.00:0.00 / mixed_ref=0 / me_range=16 / chroma_me=1 / trellis=0 / 8x8dct=0 / cqm=0 / deadzone=21,11 / fast_pskip=1 / chroma_qp_offset=0 / threads=8 / lookahead_threads=1 / sliced_threads=0 / nr=0 / decimate=1 / interlaced=0 / bluray_compat=0 / constrained_intra=0 / bframes=0 / weightp=0 / keyint=12 / keyint_min=1 / scenecut=0 / intra_refresh=0 / rc=crf / mbtree=0 / crf=16.0 / qcomp=0.60 / qpmin=0 / qpmax=69 / qpstep=4 / ip_ratio=1.40 / aq=0
Default : Yes
Forced : No

Audio #1
ID : 2
Format : AC-3
Format/Info : Audio Coding 3
Commercial name : Dolby Digital
Codec ID : A_AC3
Duration : 3 h 9 min
Bit rate mode : Constant
Bit rate : 448 kb/s
Channel(s) : 6 channels
Channel layout : L R C LFE Ls Rs
Sampling rate : 48.0 kHz
Frame rate : 31.250 FPS (1536 SPF)
Compression mode : Lossy
Stream size : 607 MiB (1%)
Language : Russian
Service kind : Complete Main
Default : Yes
Forced : Yes

Audio #2
ID : 3
Format : AC-3
Format/Info : Audio Coding 3
Commercial name : Dolby Digital
Codec ID : A_AC3
Duration : 3 h 9 min
Bit rate mode : Constant
Bit rate : 448 kb/s
Channel(s) : 6 channels
Channel layout : L R C LFE Ls Rs
Sampling rate : 48.0 kHz
Frame rate : 31.250 FPS (1536 SPF)
Compression mode : Lossy
Stream size : 607 MiB (1%)
Language : Russian
Service kind : Complete Main
Default : No
Forced : No

Audio #3
ID : 4
Format : DTS XLL
Format/Info : Digital Theater Systems
Commercial name : DTS-HD Master Audio
Codec ID : A_DTS
Duration : 3 h 9 min
Bit rate mode : Variable
Bit rate : 3 825 kb/s
Channel(s) : 6 channels
Channel layout : C L R Ls Rs LFE
Sampling rate : 48.0 kHz
Frame rate : 93.750 FPS (512 SPF)
Bit depth : 24 bits
Compression mode : Lossless
Stream size : 5.06 GiB (6%)
Language : English
Default : No
Forced : No

Text #1
ID : 5
Format : PGS
Muxing mode : zlib
Codec ID : S_HDMV/PGS
Codec ID/Info : Picture based subtitle format used on BDs/HD-DVDs
Duration : 3 h 7 min
Bit rate : 15.0 kb/s
Count of elements : 2133
Stream size : 20.1 MiB (0%)
Language : English
Default : No
Forced : No

Text #2
ID : 6
Format : PGS
Muxing mode : zlib
Codec ID : S_HDMV/PGS
Codec ID/Info : Picture based subtitle format used on BDs/HD-DVDs
Duration : 3 h 1 min
Bit rate : 12.8 kb/s
Count of elements : 2500
Stream size : 16.6 MiB (0%)
Language : Russian
Default : No
Forced : No



712c24d55cfe4f3392cc9acef5a3b3c1.jpg 7775993fd821eebb7722c5e218fac931_meitu_3.jpg dc7ef897c887a010a8fd1b7b7410d3b9.jpg ee3e1fced8bbfbc769066b6fbe0b0235_meitu_1.jpg
(PS:非4K蓝光REMUX截图)

首发4K蓝光REMUX俄版资源,无视迅雷下载软件,推荐使用qBittorrent等下载软件,有条件的推荐115更好的下载软件!
经典影片,有能力字幕爱好的发烧友,请联系本楼主

天国王朝(87.74GB)Kingdom Of Heaven.2005.BDRemux.AI_UPSCALE_3840x2160_alq-11_SDR_Finalalang
游客,如果您要查看本帖隐藏内容请回复

天国王朝(83.74GB)Kingdom of Heaven.2005.BDRemux.AI_UPSCALE_3840x2160_alq-8_SDR_Finalalang
游客,如果您要查看本帖隐藏内容请回复


124128vabhkbeldlrgmpmb.gif


回复

使用道具 举报

0

主题

1248

帖子

3564

积分

4K家园VIP

Rank: 9Rank: 9Rank: 9

积分
3564
发表于 2021-2-16 15:26:42 来自手机 | 显示全部楼层
4K家园资源不错,前排支持
回复 支持 反对

使用道具 举报

0

主题

3689

帖子

1万

积分

4K家园VIP

Rank: 9Rank: 9Rank: 9

积分
10136
发表于 2021-2-16 15:35:04 | 显示全部楼层
太好啦&萬分感謝版主的無私發佈分享%
回复 支持 反对

使用道具 举报

0

主题

2

帖子

28

积分

新手上路

Rank: 1

积分
28
发表于 2021-2-16 16:51:36 | 显示全部楼层
资源下载不了,除了用迅雷下载,还有什么比较好的下载工具?
回复 支持 反对

使用道具 举报

0

主题

1

帖子

6

积分

新手上路

Rank: 1

积分
6
发表于 2021-2-16 17:30:12 | 显示全部楼层
KK
回复

使用道具 举报

0

主题

2

帖子

9

积分

新手上路

Rank: 1

积分
9
发表于 2021-2-16 21:06:49 | 显示全部楼层
找了好久,谢谢!
回复 支持 反对

使用道具 举报

1

主题

7

帖子

379

积分

4K家园VIP

Rank: 9Rank: 9Rank: 9

积分
379
发表于 2021-2-16 21:51:27 | 显示全部楼层
终于等到这部片子的4K了
回复 支持 反对

使用道具 举报

0

主题

20

帖子

502

积分

新手上路

Rank: 1

积分
502
发表于 2021-2-17 01:16:06 | 显示全部楼层
终于等到这部片子的4K了
回复 支持 反对

使用道具 举报

1

主题

646

帖子

9221

积分

4K家园VIP

Rank: 9Rank: 9Rank: 9

积分
9221
发表于 2021-2-17 13:37:55 | 显示全部楼层
感謝版主的無私分享
回复 支持 反对

使用道具 举报

0

主题

20

帖子

180

积分

新手上路

Rank: 1

积分
180
发表于 2021-2-17 14:48:46 | 显示全部楼层
谢谢楼主分享
回复 支持 反对

使用道具 举报

您需要登录后才可以回帖 登录 | 立即注册

本版积分规则

精彩图文
Archiver|手机版|TAG|Sitemap|新帖|专题|联系我们:邮箱: 4kjia.com@gmail.com   

4k家园   ©2019