[4K电影] 《怪物猎人/魔物猎人》4K高清下载/大小10.99GB

  [复制链接]

359

主题

369

帖子

3636

积分

4K家园VIP

Rank: 9Rank: 9Rank: 9

积分
3636
 楼主| 发表于 2021-2-17 11:21:00 | 显示全部楼层 |阅读模式
本帖最后由 最爱4K哟 于 2021-2-18 11:21 编辑

MV5BNzU4N2VjYWUtY2YwZC00ODlmLTg5ZDktZWI5NGY5NWQ1NmI1XkEyXkFqcGdeQXVyMTI0NTE1Njg4.jpg MV5BOGU3NTFmNjYtODc3Ny00MWEzLWI3M2ItZjE3NDgwMTI0MzkzXkEyXkFqcGdeQXVyMTEyMjM2NDc2.jpg

◎译  名 怪物猎人/魔物猎人
◎片  名 Monster Hunter
◎年  代 2021
◎国  家 美国
◎类  别 动作/奇幻/冒险
◎语  言 英语
◎字  幕 中文字幕
◎IMDb评分  5.7/10 from 4015 users
◎IMDb链接  https://www.imdb.com/title/tt6475714
◎片  长 107 Mins
◎导  演 保罗·安德森 Paul W.S. Anderson
◎主  演 米拉·乔沃维奇 Milla Jovovich
      托尼·贾 Tony Jaa
      T.I.
      梅根·古德 Meagan Good
      迭戈·博内塔 Diego Boneta
      乔什·赫尔曼 Josh Helman
      欧阳靖 Jin Au-Yeung
      朗·普尔曼 Ron Perlman
      雅尼克·许曼 Jannik Schümann
      Schelaine Bennett
      Nic Rasenti
      Nanda Costa
      Aaron Beelner
      Adrián Mu?oz
      山崎紘菜 Hirona Yamazaki

◎简  介

  根据卡普空经典游戏怪物猎人改编,讲述了饰演联合国军队队长的米拉·乔沃维奇被传送到了怪物们栖息的异世界,在那里遇见托尼·贾饰演的猎人,两人合作关闭传送门去阻止怪物侵袭地球的故事。

  在我们的世界背后,还有另外一个世界:这里满是危险而强大的怪物,用它们的凶残奠定了在这个世界的统治地位。阿特米斯队长(米拉·乔沃维奇饰演)和她的队员们(TI哈里斯、梅根·古德、迭戈·博内塔饰演)被一场突如其来的沙尘暴传送到了一个前所未见的新世界,在未知而充满敌意的环境里,他们无比震惊地发现了大量令人恐惧且免疫热兵器攻击的怪兽。充满绝望的生死存亡之战中,这只小队遭遇了一名神秘的猎手(托尼·贾饰演),他掌握了一些独一无二的技能,让他能在面对这些强大生物时占据上风。随着阿特米斯和猎人之间逐渐建立信任,她发现这名猎人其实是一支团队的一员,他们的首领名叫阿德米尔(朗·普尔曼饰演)。面对一场足以毁灭这个世界的危机,身怀绝技的勇敢武士们团结在一起,齐心协力应对这次终极之战。影片改编自畅销全球的现象级游戏作品《怪物猎人》。

  阿尔忒弥斯中尉(米拉·乔沃维奇 饰)和她的精英小队在沙漠执行任务时,意外进入到一个陌生凶残的异世界。这里有喷火的巨龙,有巨大的蜘蛛,有各种致命的怪物,中尉和队员们拼命寻找归途,却惨遭怪物追杀屠戮……最绝望的时候,阿尔忒弥斯遇到了一位猎人(托尼·贾 饰),他掌握着怪物世界里独特的生存技能、和可以击杀怪物的武器。面对越来越多来势汹汹的怪物,勇士们决定携手杀出一条血路!影片改编自全球现象级同名电子游戏《怪物猎人》(暂译),将在2020年全球上映。


Video
ID : 1
Format : HEVC
Format/Info : High Efficiency Video Coding
Format profile : Main@L5@Main
Codec ID : V_MPEGH/ISO/HEVC
Duration : 1 h 43 min
Bit rate : 9 478 kb/s
Width : 3 840 pixels
Height : 1 600 pixels
Display aspect ratio : 2.40:1
Frame rate mode : Constant
Frame rate : 23.976 (24000/1001) FPS
Standard : NTSC
Color space : YUV
Chroma subsampling : 4:2:0
Bit depth : 8 bits
Bits/(Pixel*Frame) : 0.064
Stream size : 6.83 GiB (94%)
Writing library : x265 2.9_elemental+1-9e0607aa5b6f:[Linux][GCC 4.8.5][64 bit] 8bit+10bit+12bit
Encoding settings : cpuid=1111039 / frame-threads=2 / wpp / no-pmode / no-pme / psnr / ssim / log-level=2 / csv / csv-log-level=2 / input-csp=1 / input-res=3840x1600 / interlace=0 / total-frames=0 / level-idc=50 / high-tier=1 / uhd-bd=0 / ref=5 / no-allow-non-conformance / no-repeat-headers / annexb / no-aud / no-hrd / info / hash=0 / no-temporal-layers / no-open-gop / min-keyint=61 / keyint=120 / gop-lookahead=0 / bframes=8 / b-adapt=2 / b-pyramid / bframe-bias=0 / rc-lookahead=120 / lookahead-slices=4 / scenecut=0 / radl=0 / no-intra-refresh / ctu=64 / min-cu-size=8 / rect / amp / max-tu-size=32 / tu-inter-depth=4 / tu-intra-depth=4 / limit-tu=4 / rdoq-level=2 / dynamic-rd=0.00 / no-ssim-rd / signhide / tskip / nr-intra=100 / nr-inter=600 / no-constrained-intra / strong-intra-smoothing / max-merge=3 / limit-refs=3 / limit-modes / me=3 / subme=3 / merange=57 / temporal-mvp / weightp / weightb / no-analyze-src-pics / deblock=0:0 / no-sao / no-sao-non-deblock / rd=4 / no-early-skip / no-rskip / no-fast-intra / tskip-fast / no-cu-lossless / b-intra / no-splitrd-skip / rdpenalty=0 / psy-rd=4.00 / psy-rdoq=10.00 / no-rd-refine / no-lossless / cbqpoffs=0 / crqpoffs=0 / rc=crf / crf=25.0 / qcomp=0.60 / qpstep=1 / stats-write=0 / stats-read=0 / vbv-maxrate=15000 / vbv-bufsize=20000 / vbv-init=0.9 / crf-max=0.0 / crf-min=0.0 / ipratio=1.10 / pbratio=1.00 / aq-mode=0 / aq-strength=1.50 / no-cutree / zone-count=0 / no-strict-cbr / qg-size=32 / rc-grain / qpmax=69 / qpmin=0 / const-vbv / sar=1 / overscan=0 / videoformat=2 / range=0 / colorprim=1 / transfer=1 / colormatrix=1 / chromaloc=0 / display-window=0 / max-cll=0,0 / min-luma=0 / max-luma=255 / log2-max-poc-lsb=8 / vui-timing-info / vui-hrd-info / slices=1 / opt-qp-pps / no-opt-ref-list-length-pps / no-multi-pass-opt-rps / scenecut-bias=0.05 / no-opt-cu-delta-qp / no-aq-motion / no-hdr / no-hdr-opt / no-dhdr10-opt / no-idr-recovery-sei / analysis-reuse-level=5 / scale-factor=0 / refine-intra=0 / refine-inter=0 / refine-mv=0 / no-limit-sao / ctu-info=0 / no-lowpass-dct / refine-mv-type=0 / copy-pic=1 / max-ausize-factor=1.0 / no-dynamic-refine / no-single-sei
Default : Yes
Forced : No
Color range : Limited
Color primaries : BT.709
Transfer characteristics : BT.709
Matrix coefficients : BT.709

Audio
ID : 2
Format : E-AC-3
Format/Info : Enhanced AC-3
Commercial name : Dolby Digital Plus
Codec ID : A_EAC3
Duration : 1 h 43 min
Bit rate mode : Constant
Bit rate : 640 kb/s
Channel(s) : 6 channels
Channel layout : L R C LFE Ls Rs
Sampling rate : 48.0 kHz
Frame rate : 31.250 FPS (1536 SPF)
Compression mode : Lossy
Stream size : 472 MiB (6%)
Title : DDP 5.1
Language : English
Service kind : Complete Main
Default : Yes
Forced : No

Text #1
ID : 3
Format : UTF-8
Codec ID : S_TEXT/UTF8
Codec ID/Info : UTF-8 Plain Text
Duration : 43 min 44 s
Bit rate : 0 b/s
Count of elements : 7
Stream size : 172 Bytes (0%)
Title : FORCED
Language : English
Default : Yes
Forced : Yes

Text #2
ID : 4
Format : UTF-8
Codec ID : S_TEXT/UTF8
Codec ID/Info : UTF-8 Plain Text
Duration : 1 h 29 min
Bit rate : 19 b/s
Count of elements : 515
Stream size : 12.6 KiB (0%)
Language : English
Default : No
Forced : No

Text #3
ID : 5
Format : UTF-8
Codec ID : S_TEXT/UTF8
Codec ID/Info : UTF-8 Plain Text
Duration : 1 h 42 min
Bit rate : 25 b/s
Count of elements : 986
Stream size : 19.2 KiB (0%)
Title : SDH
Language : English
Default : No
Forced : No


18803499463797470584_thumb.jpg 64196279843509745811_thumb (1).jpg 68161797790916202308_thumb.jpg


游客,如果您要查看本帖隐藏内容请回复

游客,如果您要查看本帖隐藏内容请回复


俄版资源:
游客,如果您要查看本帖隐藏内容请回复

怪物猎人字幕文件下载:
游客,如果您要查看本帖隐藏内容请回复



.





回复

使用道具 举报

0

主题

1064

帖子

3178

积分

4K家园VIP

Rank: 9Rank: 9Rank: 9

积分
3178
发表于 2021-2-17 11:21:34 | 显示全部楼层
看着好像不错
回复 支持 反对

使用道具 举报

0

主题

30

帖子

2111

积分

4K家园VIP

Rank: 9Rank: 9Rank: 9

积分
2111
发表于 2021-2-17 12:53:03 | 显示全部楼层
找不到字幕呀~字幕哪里有~?!
回复 支持 反对

使用道具 举报

0

主题

30

帖子

2111

积分

4K家园VIP

Rank: 9Rank: 9Rank: 9

积分
2111
发表于 2021-2-17 13:00:40 | 显示全部楼层
没有中文字幕呀~中文字幕哪里有啊~?!
回复 支持 反对

使用道具 举报

0

主题

2818

帖子

8716

积分

4K家园VIP

Rank: 9Rank: 9Rank: 9

积分
8716
发表于 2021-2-17 13:02:47 | 显示全部楼层
太好啦&萬分感謝版主的無私發佈分享%
回复 支持 反对

使用道具 举报

0

主题

30

帖子

2111

积分

4K家园VIP

Rank: 9Rank: 9Rank: 9

积分
2111
发表于 2021-2-17 13:19:21 | 显示全部楼层
字幕用不了呀~?!
回复 支持 反对

使用道具 举报

0

主题

30

帖子

2111

积分

4K家园VIP

Rank: 9Rank: 9Rank: 9

积分
2111
发表于 2021-2-17 13:20:18 | 显示全部楼层
求个字幕呀~想看啊 找不到字幕~!!!
回复 支持 反对

使用道具 举报

0

主题

2

帖子

9

积分

新手上路

Rank: 1

积分
9
发表于 2021-2-17 13:44:12 | 显示全部楼层
太感谢了,支持
回复 支持 反对

使用道具 举报

0

主题

1

帖子

6

积分

新手上路

Rank: 1

积分
6
发表于 2021-2-17 14:39:10 | 显示全部楼层
这个可以的
回复 支持 反对

使用道具 举报

0

主题

6

帖子

49

积分

新手上路

Rank: 1

积分
49
发表于 2021-2-17 16:11:43 | 显示全部楼层
等很久了终于来了
回复 支持 反对

使用道具 举报

您需要登录后才可以回帖 登录 | 立即注册

本版积分规则

精彩图文
Archiver|手机版|TAG|Sitemap|新帖|专题|联系我们:邮箱: 4kjia.com@gmail.com   

4k家园   ©2019