[4K UHD 蓝光原盘] 《潜行者/Stalker(俄版)》4K蓝光REMUX 版本下载

  [复制链接]

756

主题

776

帖子

1万

积分

超级版主

Rank: 8Rank: 8

积分
10186
 楼主| 发表于 2021-2-17 17:37:48 | 显示全部楼层 |阅读模式
本帖最后由 没完没了 于 2021-2-17 17:40 编辑

QQ图片20210217172345_副本.png

◎译  名 潜行者/Stalker
◎片  名 Сталкер
◎年  代 1979
◎产  地 苏联
◎类  别 剧情 / 科幻 / 悬疑
◎语  言 俄语
◎上映日期 1979-05(苏联) / 1980-05-13(戛纳电影节)
◎IMDb评分 8.2/10 from 112855 users
◎IMDb链接 https://www.imdb.com/title/tt0079944/
◎豆瓣评分 8.8/10 from 16397 users
◎豆瓣链接 https://movie.douban.com/subject/1295656/
◎片  长 02 : 41 :54
◎导  演 安德烈·塔可夫斯基 Andrei Tarkovsky
◎编  剧 安德烈·塔可夫斯基 Andrei Tarkovsky / 阿尔卡季·斯特鲁加茨基 Arkadi Strugatsky / 鲍里斯·斯特鲁加茨基 Boris Strugatsky
◎主  演 亚历山大·凯伊达诺夫斯基 Aleksandr Kaidanovsky
      阿丽萨·弗雷因德利赫 Alisa Freyndlikh
      安纳托利·索洛尼岑 Anatoliy Solonitsyn
      尼古拉·格林科 Nikolai Grinko
      纳塔利娅·阿布拉莫娃 Natalya Abramova
      费米·约尔诺 Faime Jurno
      E·科斯京 E. Kostin
      雷默·伦迪 Raymo Rendi



◎简  介

  清晨,空荡幽暗的卧室。潜行者(亚历山大·凯伊达诺夫斯基 Aleksandr Kajdanovsky饰)悄然无息地起身准备与另外两人会合前往一片恐怖复杂的地带。可妻子(阿丽萨·弗雷因德利赫 Alisa Frejndlikh饰)却极力哀求他不要冒险进入该地。而这位训练有素、 经验丰富的潜行者,即将穿越的是一片有着千变万化陷阱和圈套的地区“The Zone”。这块二十年前因陨星坠落而荒芜的恐怖地区,传说有一个名叫“The Room”的囚室,它能满足人们潜意识里最深层的意愿和欲望。潜行者与为寻求灵感的作家(安纳托里·索洛尼岑 Anatoli Solonitsyn饰)和为探明真相的科学家(尼古莱·格陵柯 Nikolai Grinko饰),踏上了这片变幻莫测的死亡之地。

  这部极具史诗片气质,探究人类灵魂本质的科幻电影《潜行者》,用诗意而极富隐喻的长镜头,挖掘着人类潜意识与外部世界的重重矛盾与深层意义。1957年,一场发生在苏联车里亚宾斯克附近名叫玛雅卡工厂的核灾难,深深触动了导演安德烈·塔科夫斯基,成为本部电影中的创作素材。影片也改变自小说《The Roadside Picnic》。本片荣获1980年第33届戛纳电影节天主教人道奖。

◎获奖情况

  第33届戛纳电影节 ?(1980)
  天主教人道精神奖-特别提及 安德烈·塔可夫斯基


Media Info
General
Complete name :潜行者(125.07GB)Сталкер.1979.[CRITERION REMASTERED].BDRemux.AI_UPSCALE_3840x2160_ahq-10_SDR_Finalalang.mkv
Format : Matroska
Format version : Version 4
File size : 125 GiB
Duration : 2 h 41 min
Overall bit rate : 111 Mb/s
Encoded date : UTC 2021-02-04 13:55:25
Writing application : mkvmerge v53.0.0 ('Fool's Gold') 64-bit
Writing library : libebml v1.4.1 + libmatroska v1.6.2

Video
ID : 1
Format : AVC
Format/Info : Advanced Video Codec
Format profile : Baseline@L5.1
Format settings : 1 Ref Frames
Format settings, CABAC : No
Format settings, Reference fra : 1 frame
Format settings, GOP : M=1, N=12
Codec ID : V_MPEG4/ISO/AVC
Duration : 2 h 41 min
Bit rate : 109 Mb/s
Width : 3 840 pixels
Height : 2 160 pixels
Display aspect ratio : 16:9
Frame rate mode : Constant
Frame rate : 23.976 (24000/1001) FPS
Color space : YUV
Chroma subsampling : 4:2:0
Bit depth : 8 bits
Scan type : Progressive
Bits/(Pixel*Frame) : 0.550
Stream size : 124 GiB (99%)
Writing library : x264 core 157 r2970 5493be8
Encoding settings : cabac=0 / ref=1 / deblock=0:0:0 / analyse=0:0 / me=dia / subme=0 / psy=1 / psy_rd=1.00:0.00 / mixed_ref=0 / me_range=16 / chroma_me=1 / trellis=0 / 8x8dct=0 / cqm=0 / deadzone=21,11 / fast_pskip=1 / chroma_qp_offset=0 / threads=8 / lookahead_threads=1 / sliced_threads=0 / nr=0 / decimate=1 / interlaced=0 / bluray_compat=0 / constrained_intra=0 / bframes=0 / weightp=0 / keyint=12 / keyint_min=1 / scenecut=0 / intra_refresh=0 / rc=crf / mbtree=0 / crf=14.0 / qcomp=0.60 / qpmin=0 / qpmax=69 / qpstep=4 / ip_ratio=1.40 / aq=0
Default : Yes
Forced : No

Audio
ID : 2
Format : PCM
Format settings : Little / Signed
Codec ID : A_PCM/INT/LIT
Duration : 2 h 41 min
Bit rate mode : Constant
Bit rate : 1 152 kb/s
Channel(s) : 1 channel
Sampling rate : 48.0 kHz
Frame rate : 200.000 FPS (240 SPF)
Bit depth : 24 bits
Stream size : 1.30 GiB (1%)
Language : Russian
Default : Yes
Forced : No

Text
ID : 3
Format : PGS
Muxing mode : zlib
Codec ID : S_HDMV/PGS
Codec ID/Info : Picture based subtitle format used on BDs/HD-DVDs
Duration : 2 h 38 min
Bit rate : 26.0 kb/s
Count of elements : 2060
Stream size : 29.5 MiB (0%)
Language : English
Default : Yes
Forced : No



首发4K蓝光REMUX俄版资源,无视迅雷下载软件,推荐使用qBittorrent等下载软件,有条件的推荐115更好的下载软件!

潜行者(125.07GB)Сталкер.1979.[CRITERION REMASTERED].BDRemux.AI_UPSCALE_3840x2160_ahq-10_SDR_Finalalang
游客,如果您要查看本帖隐藏内容请回复

心,爱心.gif

回复

使用道具 举报

56

主题

1375

帖子

4009

积分

4K家园VIP

Rank: 9Rank: 9Rank: 9

积分
4009
发表于 2021-2-17 17:37:56 | 显示全部楼层
支持一下楼主,顶起来
回复 支持 反对

使用道具 举报

0

主题

2818

帖子

8716

积分

4K家园VIP

Rank: 9Rank: 9Rank: 9

积分
8716
发表于 2021-2-17 19:10:30 | 显示全部楼层
太好啦&萬分感謝版主的無私發佈分享%
回复 支持 反对

使用道具 举报

0

主题

3

帖子

15

积分

新手上路

Rank: 1

积分
15
发表于 2021-2-17 20:49:47 | 显示全部楼层
谢谢分享
回复

使用道具 举报

0

主题

1453

帖子

3963

积分

4K家园VIP

Rank: 9Rank: 9Rank: 9

积分
3963
发表于 2021-2-18 04:36:00 | 显示全部楼层
多发些资源啊
回复 支持 反对

使用道具 举报

0

主题

164

帖子

1175

积分

4K家园VIP

Rank: 9Rank: 9Rank: 9

积分
1175
QQ
发表于 2021-2-18 11:25:12 | 显示全部楼层
楼主辛苦了,谢谢楼主,感谢楼主分享,楼主好人一生平安!!!
回复 支持 反对

使用道具 举报

0

主题

1163

帖子

3501

积分

4K家园VIP

Rank: 9Rank: 9Rank: 9

积分
3501
发表于 2021-2-19 12:32:34 | 显示全部楼层
多发些资源啊
回复 支持 反对

使用道具 举报

0

主题

1220

帖子

3494

积分

中级会员

Rank: 4

积分
3494
发表于 2021-2-19 16:09:05 | 显示全部楼层
楼主这资源不错,我收藏了
回复 支持 反对

使用道具 举报

48

主题

1367

帖子

3923

积分

4K家园VIP

Rank: 9Rank: 9Rank: 9

积分
3923
发表于 2021-2-20 06:36:24 | 显示全部楼层
多发些资源啊
回复 支持 反对

使用道具 举报

0

主题

15

帖子

82

积分

4K家园VIP

Rank: 9Rank: 9Rank: 9

积分
82
发表于 2021-2-20 16:18:22 | 显示全部楼层
多谢楼主!!!!!!!!!!!!!
回复

使用道具 举报

您需要登录后才可以回帖 登录 | 立即注册

本版积分规则

精彩图文
Archiver|手机版|TAG|Sitemap|新帖|专题|联系我们:邮箱: 4kjia.com@gmail.com   

4k家园   ©2019