[4K UHD 蓝光原盘] 《最终幻想15:王者之剑(俄版)》4K蓝光REMUX 版本下载

  [复制链接]

756

主题

776

帖子

1万

积分

超级版主

Rank: 8Rank: 8

积分
10186
 楼主| 发表于 2021-2-18 10:43:56 | 显示全部楼层 |阅读模式

最终幻想15:王者之剑 海报.jpg

◎译  名 最终幻想15:王者之剑/FF15/キングスグレイブ ファイナルファンタジーXV
◎片  名 Kingsglaive Final Fantasy XV
◎年  代 2016
◎产  地 日本
◎类  别 剧情/科幻/动画/奇幻/冒险
◎语  言 英语/日语
◎上映日期 2016-07-09(日本)/2016-08-19(美国)/2017-03-10(中国大陆)
◎IMDb评分 6.8/10 from 17,738 users
◎IMDb链接 https://www.imdb.com/title/tt5595168/
◎豆瓣评分 7.2/10 from 27,141 users
◎豆瓣链接 https://movie.douban.com/subject/26762709/
◎片  长 116分钟
◎导  演 Takeshi Nozue
◎编  剧 Takashi Hasegawa
◎主  演 亚伦·保尔 Aaron Paul
      肖恩·宾 Sean Bean
      琳娜·海蒂 Lena Headey
      David Gant
      达林·德保罗 Darin De Paul
      特雷弗·德瓦 Trevor Devall
      阿德里安·布薛特 Adrian Bouchet
      连姆·穆尔维 Liam Mulvey
      约翰·德米塔 John DeMita
      安德里亚·提瓦塔 Andrea Tivadar
      托德·哈伯空 Todd Haberkorn
      亚当·克罗斯代尔 Adam Croasdell
      克里斯托弗·L·帕森 Christopher L. Parson


◎简  介

  影片基于2016年电子角色扮演游戏《最终幻想XV》的世界观,构成新的水晶故事子系列的一部分。本片由野末武志执导,他曾是最终幻想CGI电影《最终幻想VII 降临之子》(2005)的联合导演。《最终幻想XV》总监田畑端担任电影监制,长谷川隆任编剧,约翰·R·格雷厄姆负责作曲。

◎获奖情况

  第4届豆瓣电影年度榜单 (2017)
  3月最受关注电影(提名)


Media Info
General
Complete name : 最终幻想15:王者之剑(56.49GB) Kingsglaive Final Fantasy XV.2016.BDRemux.AI_UPSCALE_3840x2160_alq-8_SDR_Finalalang
Format : Matroska
Format version : Version 4
File size : 56.5 GiB
Duration : 1 h 55 min
Overall bit rate mode : Variable
Overall bit rate : 70.0 Mb/s
Movie name : build by ***селезень***
Encoded date : UTC 2020-12-08 23:44:08
Writing application : mkvmerge v51.0.0 ('I Wish') 64-bit
Writing library : libebml v1.4.0 + libmatroska v1.6.2

Video
ID : 1
Format : AVC
Format/Info : Advanced Video Codec
Format profile : Baseline@L5.1
Format settings : 1 Ref Frames
Format settings, CABAC : No
Format settings, Reference fra : 1 frame
Format settings, GOP : M=1, N=12
Codec ID : V_MPEG4/ISO/AVC
Duration : 1 h 55 min
Bit rate : 67.1 Mb/s
Width : 3 840 pixels
Height : 2 160 pixels
Display aspect ratio : 16:9
Frame rate mode : Constant
Frame rate : 23.976 (24000/1001) FPS
Color space : YUV
Chroma subsampling : 4:2:0
Bit depth : 8 bits
Scan type : Progressive
Bits/(Pixel*Frame) : 0.337
Stream size : 54.1 GiB (96%)
Writing library : x264 core 157 r2970 5493be8
Encoding settings : cabac=0 / ref=1 / deblock=0:0:0 / analyse=0:0 / me=dia / subme=0 / psy=1 / psy_rd=1.00:0.00 / mixed_ref=0 / me_range=16 / chroma_me=1 / trellis=0 / 8x8dct=0 / cqm=0 / deadzone=21,11 / fast_pskip=1 / chroma_qp_offset=0 / threads=8 / lookahead_threads=1 / sliced_threads=0 / nr=0 / decimate=1 / interlaced=0 / bluray_compat=0 / constrained_intra=0 / bframes=0 / weightp=0 / keyint=12 / keyint_min=1 / scenecut=0 / intra_refresh=0 / rc=crf / mbtree=0 / crf=15.0 / qcomp=0.60 / qpmin=0 / qpmax=69 / qpstep=4 / ip_ratio=1.40 / aq=0
Default : Yes
Forced : No

Audio #1
ID : 2
Format : AC-3
Format/Info : Audio Coding 3
Commercial name : Dolby Digital
Codec ID : A_AC3
Duration : 1 h 55 min
Bit rate mode : Constant
Bit rate : 640 kb/s
Channel(s) : 6 channels
Channel layout : L R C LFE Ls Rs
Sampling rate : 48.0 kHz
Frame rate : 31.250 FPS (1536 SPF)
Compression mode : Lossy
Stream size : 529 MiB (1%)
Title : MVO [Blu-Ray EUR]
Language : Russian
Service kind : Complete Main
Default : Yes
Forced : Yes

Audio #2
ID : 3
Format : DTS XLL
Format/Info : Digital Theater Systems
Commercial name : DTS-HD Master Audio
Codec ID : A_DTS
Duration : 1 h 55 min
Bit rate mode : Variable
Bit rate : 2 280 kb/s
Channel(s) : 6 channels
Channel layout : C L R Ls Rs LFE
Sampling rate : 48.0 kHz
Frame rate : 93.750 FPS (512 SPF)
Bit depth : 16 bits
Compression mode : Lossless
Stream size : 1.84 GiB (3%)
Title : Original
Language : English
Default : No
Forced : No

Text #1
ID : 4
Format : UTF-8
Codec ID : S_TEXT/UTF8
Codec ID/Info : UTF-8 Plain Text
Duration : 1 h 55 min
Bit rate : 70 b/s
Count of elements : 1098
Stream size : 59.7 KiB (0%)
Title : Full
Language : Russian
Default : No
Forced : No

Text #2
ID : 5
Format : ASS
Codec ID : S_TEXT/ASS
Codec ID/Info : Advanced Sub Station Alpha
Duration : 1 h 55 min
Bit rate : 98 b/s
Count of elements : 1099
Compression mode : Lossless
Stream size : 83.4 KiB (0%)
Title : Full [Anime]
Language : Russian
Default : No
Forced : No

Text #3
ID : 6
Format : UTF-8
Codec ID : S_TEXT/UTF8
Codec ID/Info : UTF-8 Plain Text
Duration : 1 h 55 min
Bit rate : 42 b/s
Count of elements : 1075
Stream size : 36.1 KiB (0%)
Title : Full
Language : English
Default : No
Forced : No




首发4K蓝光REMUX俄版资源,无视迅雷下载软件,推荐使用qBittorrent等下载软件,有条件的推荐115更好的下载软件!

最终幻想15:王者之剑(56.49GB) Kingsglaive Final Fantasy XV.2016.BDRemux.AI_UPSCALE_3840x2160_alq-8_SDR_Finalalang
游客,如果您要查看本帖隐藏内容请回复

心,爱心.gif


回复

使用道具 举报

1

主题

1078

帖子

3252

积分

4K家园VIP

Rank: 9Rank: 9Rank: 9

积分
3252
发表于 2021-2-18 10:44:01 来自手机 | 显示全部楼层
你们要是有4K资源记得分享,别小气
回复 支持 反对

使用道具 举报

0

主题

2818

帖子

8716

积分

4K家园VIP

Rank: 9Rank: 9Rank: 9

积分
8716
发表于 2021-2-18 12:36:28 | 显示全部楼层
太好啦&萬分感謝版主的無私發佈分享%
回复 支持 反对

使用道具 举报

0

主题

1

帖子

10

积分

新手上路

Rank: 1

积分
10
发表于 2021-2-18 16:35:36 | 显示全部楼层
感谢分享,这就下载
回复 支持 反对

使用道具 举报

0

主题

2

帖子

9

积分

新手上路

Rank: 1

积分
9
发表于 2021-2-18 19:06:32 | 显示全部楼层
感谢分享
回复

使用道具 举报

0

主题

133

帖子

6686

积分

4K家园VIP

Rank: 9Rank: 9Rank: 9

积分
6686
发表于 2021-2-18 21:43:39 | 显示全部楼层
超级感谢分享
回复 支持 反对

使用道具 举报

62

主题

1388

帖子

3978

积分

4K家园VIP

Rank: 9Rank: 9Rank: 9

积分
3978
发表于 2021-2-18 21:57:52 | 显示全部楼层
支持一下楼主,顶起来
回复 支持 反对

使用道具 举报

1

主题

1208

帖子

3412

积分

4K家园VIP

Rank: 9Rank: 9Rank: 9

积分
3412
发表于 2021-2-19 02:32:58 | 显示全部楼层
楼猪辛苦了,支持一下分享好资源
回复 支持 反对

使用道具 举报

1

主题

1382

帖子

3994

积分

4K家园VIP

Rank: 9Rank: 9Rank: 9

积分
3994
发表于 2021-2-19 22:28:42 | 显示全部楼层
多发些资源啊
回复 支持 反对

使用道具 举报

46

主题

1377

帖子

3909

积分

4K家园VIP

Rank: 9Rank: 9Rank: 9

积分
3909
发表于 2021-2-20 10:08:57 | 显示全部楼层
4K家园资源不错,前排支持
回复 支持 反对

使用道具 举报

您需要登录后才可以回帖 登录 | 立即注册

本版积分规则

精彩图文
Archiver|手机版|TAG|Sitemap|新帖|专题|联系我们:邮箱: 4kjia.com@gmail.com   

4k家园   ©2019