[4K UHD 蓝光原盘] 《最终幻想:灵魂深处(俄版)》4K蓝光REMUX 版本下载

  [复制链接]

750

主题

770

帖子

1万

积分

超级版主

Rank: 8Rank: 8

积分
10113
 楼主| 发表于 2021-2-19 11:30:00 | 显示全部楼层 |阅读模式
QQ图片20210218131327_meitu_2_副本.jpg

◎译  名 最终幻想:灵魂深处/太空战士之灭绝光年(港)/公主蒙难记(台)/终极幻想/太空战士
◎片  名 Final Fantasy: The Spirits Within
◎年  代 2001
◎产  地 美国/日本
◎类  别 动画/动作/冒险/奇幻/科幻/惊悚
◎语  言 英语
◎上映日期 2001-07-11
◎IMDb评分  6.4/10 from 75,549 users
◎IMDb链接  http://www.imdb.com/title/tt0173840/
◎豆瓣评分 6.8/10 from 10,668 users
◎豆瓣链接 https://movie.douban.com/subject/1304602/
◎片  长 106 分钟
◎导  演 坂口博信 / Moto Sakakibara
◎主  演 温明娜
      亚历克·鲍德温 Alec Baldwin
      文·瑞姆斯 Ving Rhames
      史蒂夫·布西密 Steve Buscemi
      佩里·吉普林 Peri Gilpin
      唐纳德·萨瑟兰 Donald Sutherland
      詹姆斯·伍兹 James Woods
      凯斯·大卫 Keith David
      简·西蒙斯 Jean Simmons
      Matt McKenzie

◎简  介

  本片是以电视游戏《最终幻想》作为基础的原创CG动画电影。
  本片于2001年上映,在电影靠电脑绘画的道路上树立了一个新的里程碑。
  公元2065年,地球上充满了毁灭和混乱,城市荒芜,人口被大批残杀,整个世界造到外星生命的重创,他们通过独特的方式侵袭地球上的一切生命,少数生存下来的地球人开始反抗这些外星敌人。被毁灭的梦魇时刻缠绕着的天才女科学家罗丝是这场战争中拯救世界的关键人物,但她的计划要冒极大的危险,另一边掌握着高科技军队大权的将军也有一套自己的计划去打击外星敌人,但这个计划同样要对大自然造成更大的伤害,除非罗丝能成功……


Media Info
General
Complete name : 最终幻想:灵魂深处(68.89GB)Final Fantasy The Spirits Within.2001.BDRemux_AI_UPSCALE_3840x2160_alq-8_SDR_Finalalang.mkv
Format : Matroska
Format version : Version 4
File size : 68.9 GiB
Duration : 1 h 45 min
Overall bit rate mode : Variable
Overall bit rate : 93.1 Mb/s
Encoded date : UTC 2020-12-08 21:51:48
Writing application : mkvmerge v51.0.0 ('I Wish') 64-bit
Writing library : libebml v1.4.0 + libmatroska v1.6.2

Video
ID : 1
Format : AVC
Format/Info : Advanced Video Codec
Format profile : Baseline@L5.1
Format settings : 1 Ref Frames
Format settings, CABAC : No
Format settings, Reference fra : 1 frame
Format settings, GOP : M=1, N=12
Codec ID : V_MPEG4/ISO/AVC
Duration : 1 h 45 min
Bit rate : 72.6 Mb/s
Width : 3 840 pixels
Height : 2 160 pixels
Display aspect ratio : 16:9
Frame rate mode : Constant
Frame rate : 23.976 (24000/1001) FPS
Color space : YUV
Chroma subsampling : 4:2:0
Bit depth : 8 bits
Scan type : Progressive
Bits/(Pixel*Frame) : 0.365
Stream size : 53.8 GiB (78%)
Writing library : x264 core 157 r2970 5493be8
Encoding settings : cabac=0 / ref=1 / deblock=0:0:0 / analyse=0:0 / me=dia / subme=0 / psy=1 / psy_rd=1.00:0.00 / mixed_ref=0 / me_range=16 / chroma_me=1 / trellis=0 / 8x8dct=0 / cqm=0 / deadzone=21,11 / fast_pskip=1 / chroma_qp_offset=0 / threads=8 / lookahead_threads=1 / sliced_threads=0 / nr=0 / decimate=1 / interlaced=0 / bluray_compat=0 / constrained_intra=0 / bframes=0 / weightp=0 / keyint=12 / keyint_min=1 / scenecut=0 / intra_refresh=0 / rc=crf / mbtree=0 / crf=15.0 / qcomp=0.60 / qpmin=0 / qpmax=69 / qpstep=4 / ip_ratio=1.40 / aq=0
Default : Yes
Forced : No

Audio #1
ID : 2
Format : AC-3
Format/Info : Audio Coding 3
Commercial name : Dolby Digital
Codec ID : A_AC3
Duration : 1 h 45 min
Bit rate mode : Constant
Bit rate : 640 kb/s
Channel(s) : 6 channels
Channel layout : L R C LFE Ls Rs
Sampling rate : 48.0 kHz
Frame rate : 31.250 FPS (1536 SPF)
Compression mode : Lossy
Stream size : 485 MiB (1%)
Language : Russian
Service kind : Complete Main
Default : Yes
Forced : Yes

Audio #2
ID : 3
Format : AC-3
Format/Info : Audio Coding 3
Commercial name : Dolby Digital
Codec ID : A_AC3
Duration : 1 h 45 min
Bit rate mode : Constant
Bit rate : 640 kb/s
Channel(s) : 6 channels
Channel layout : L R C LFE Ls Rs
Sampling rate : 48.0 kHz
Frame rate : 31.250 FPS (1536 SPF)
Compression mode : Lossy
Stream size : 485 MiB (1%)
Language : Russian
Service kind : Complete Main
Default : No
Forced : No

Audio #3
ID : 4
Format : DTS XLL
Format/Info : Digital Theater Systems
Commercial name : DTS-HD Master Audio
Codec ID : A_DTS
Duration : 1 h 45 min
Bit rate mode : Variable
Bit rate : 3 851 kb/s
Channel(s) : 6 channels
Channel layout : C L R Ls Rs LFE
Sampling rate : 48.0 kHz
Frame rate : 93.750 FPS (512 SPF)
Bit depth : 24 bits
Compression mode : Lossless
Stream size : 2.85 GiB (4%)
Language : Russian
Default : No
Forced : No

Audio #4
ID : 5
Format : DTS XLL
Format/Info : Digital Theater Systems
Commercial name : DTS-HD Master Audio
Codec ID : A_DTS
Duration : 1 h 45 min
Bit rate mode : Variable
Bit rate : 3 820 kb/s
Channel(s) : 6 channels
Channel layout : C L R Ls Rs LFE
Sampling rate : 48.0 kHz
Frame rate : 93.750 FPS (512 SPF)
Bit depth : 24 bits
Compression mode : Lossless
Stream size : 2.83 GiB (4%)
Language : Russian
Default : No
Forced : No

Audio #5
ID : 6
Format : DTS XLL
Format/Info : Digital Theater Systems
Commercial name : DTS-HD Master Audio
Codec ID : A_DTS
Duration : 1 h 45 min
Bit rate mode : Variable
Bit rate : 3 833 kb/s
Channel(s) : 6 channels
Channel layout : C L R Ls Rs LFE
Sampling rate : 48.0 kHz
Frame rate : 93.750 FPS (512 SPF)
Bit depth : 24 bits
Compression mode : Lossless
Stream size : 2.84 GiB (4%)
Language : Russian
Default : No
Forced : No

Audio #6
ID : 7
Format : DTS XLL
Format/Info : Digital Theater Systems
Commercial name : DTS-HD Master Audio
Codec ID : A_DTS
Duration : 1 h 45 min
Bit rate mode : Variable
Bit rate : 3 802 kb/s
Channel(s) : 6 channels
Channel layout : C L R Ls Rs LFE
Sampling rate : 48.0 kHz
Frame rate : 93.750 FPS (512 SPF)
Bit depth : 24 bits
Compression mode : Lossless
Stream size : 2.81 GiB (4%)
Language : Russian
Default : No
Forced : No

Audio #7
ID : 8
Format : DTS XLL
Format/Info : Digital Theater Systems
Commercial name : DTS-HD Master Audio
Codec ID : A_DTS
Duration : 1 h 45 min
Bit rate mode : Variable
Bit rate : 3 836 kb/s
Channel(s) : 6 channels
Channel layout : C L R Ls Rs LFE
Sampling rate : 48.0 kHz
Frame rate : 93.750 FPS (512 SPF)
Bit depth : 24 bits
Compression mode : Lossless
Stream size : 2.84 GiB (4%)
Language : English
Default : No
Forced : No

Text #1
ID : 9
Format : PGS
Muxing mode : zlib
Codec ID : S_HDMV/PGS
Codec ID/Info : Picture based subtitle format used on BDs/HD-DVDs
Duration : 4 s 338 ms
Bit rate : 120 kb/s
Count of elements : 4
Stream size : 63.7 KiB (0%)
Language : Russian
Default : No
Forced : No

Text #2
ID : 10
Format : PGS
Muxing mode : zlib
Codec ID : S_HDMV/PGS
Codec ID/Info : Picture based subtitle format used on BDs/HD-DVDs
Duration : 1 h 33 min
Bit rate : 24.6 kb/s
Count of elements : 1686
Stream size : 16.5 MiB (0%)
Language : English
Default : No
Forced : No


75e3654ec4bd906121bd6fe56e2dbe44.jpg c48df6835fb18303ec6fc3baa198cdd7.jpg 66efa7f6a54761103aaaeff3e3868ccf.jpg


首发4K蓝光REMUX俄版资源,无视迅雷下载软件,推荐使用qBittorrent等下载软件,有条件的推荐115更好的下载软件!

最终幻想:灵魂深处(68.89GB)Final Fantasy The Spirits Within.2001.BDRemux_AI_UPSCALE_3840x2160_alq-8_SDR_Finalalang
游客,如果您要查看本帖隐藏内容请回复

心,爱心.gif


回复

使用道具 举报

1

主题

1215

帖子

3489

积分

4K家园VIP

Rank: 9Rank: 9Rank: 9

积分
3489
发表于 2021-2-19 11:30:06 | 显示全部楼层
楼主这资源不错,我收藏了
回复 支持 反对

使用道具 举报

2

主题

1178

帖子

3552

积分

4K家园VIP

Rank: 9Rank: 9Rank: 9

积分
3552
发表于 2021-2-19 11:30:07 来自手机 | 显示全部楼层
楼猪辛苦了,支持一下分享好资源
回复 支持 反对

使用道具 举报

0

主题

2698

帖子

8533

积分

4K家园VIP

Rank: 9Rank: 9Rank: 9

积分
8533
发表于 2021-2-19 12:34:57 | 显示全部楼层
太好啦&萬分感謝版主的無私發佈分享%
回复 支持 反对

使用道具 举报

0

主题

2

帖子

9

积分

新手上路

Rank: 1

积分
9
发表于 2021-2-21 12:40:04 来自手机 | 显示全部楼层
怎么下载啊
回复 支持 反对

使用道具 举报

2

主题

1180

帖子

3394

积分

4K家园VIP

Rank: 9Rank: 9Rank: 9

积分
3394
发表于 2021-2-21 15:49:43 来自手机 | 显示全部楼层
多发些资源啊
回复 支持 反对

使用道具 举报

48

主题

1366

帖子

3920

积分

4K家园VIP

Rank: 9Rank: 9Rank: 9

积分
3920
发表于 6 天前 来自手机 | 显示全部楼层
谢谢楼主
回复 支持 反对

使用道具 举报

0

主题

1162

帖子

3498

积分

4K家园VIP

Rank: 9Rank: 9Rank: 9

积分
3498
发表于 3 天前 来自手机 | 显示全部楼层
支持一下楼主,顶起来
回复 支持 反对

使用道具 举报

您需要登录后才可以回帖 登录 | 立即注册

本版积分规则

精彩图文
Archiver|手机版|TAG|Sitemap|新帖|专题|联系我们:邮箱: 4kjia.com@gmail.com   

4k家园   ©2019