[4K UHD 蓝光原盘] 《绝密飞行/智能杀机(俄版)》4K蓝光REMUX 版本下载

  [复制链接]

758

主题

778

帖子

1万

积分

超级版主

Rank: 8Rank: 8

积分
10205
 楼主| 发表于 2021-2-20 11:30:00 | 显示全部楼层 |阅读模式
QQ图片20210218201628_meitu_1_副本.jpg

◎译  名 绝密飞行/智能杀机/机战未来
◎片  名 Stealth
◎年  代 2005
◎产  地 美国
◎类  别 动作 / 科幻 / 冒险
◎语  言 英语,俄语,西班牙语,韩语
◎上映日期 2005-07-29(美国) / 2005-09-08(中国大陆)
◎IMDb评分 5.1/10 from 51516 users
◎IMDb链接 https://www.imdb.com/title/tt0382992/
◎豆瓣评分 6.7/10 from 27134 users
◎豆瓣链接 https://movie.douban.com/subject/1309200/
◎片  长 121 分钟
◎导  演 罗伯·科恩 Rob Cohen
◎编  剧 W·D·里克特 W.D. Richter
◎主  演 乔什·卢卡斯 Josh Lucas
      杰西卡·贝尔 Jessica Biel
      杰米·福克斯 Jamie Foxx
      山姆·夏普德 Sam Shepard
      理查德·劳斯伯格 Richard Roxburgh
      保罗·潘塔诺 Paul Pantano
      尼古拉·尼克拉斐 Nikolai Nikolaeff
      Alexandra Davies
      艾邦·摩斯-巴克拉赫 Ebon Moss-Bachrach
      乔尔·托贝克 Joel Tobeck
      约翰·沃特斯 John Waters
      温特沃斯·米勒 Wentworth Miller
      梅根·盖尔 Megan Gale
      陈敬权 Jason Chan
      卡罗琳·德索扎 Caroline de Souza Correa
      瓦维克·杨 Warwick Young
      乔·莫顿 Joe Morton
      尼古拉斯·哈蒙德 Nicholas Hammond


◎简  介

  本(乔什?卢卡斯 Josh Lucas 饰)、凯拉(杰西卡?贝尔 Jessica Biel 饰)和亨利(杰米?福克斯 Jamie Foxx 饰)都是顶尖出色的飞行员。这天,他们接到了一项秘密任务:训练他们的新伙伴"铁蛋"。出人意料的是,"铁蛋"竟然是一架全智能的无人驾驶飞机,他们的任务就是把它训练成为锋利的尖刀。在完成一次飞行任务后,"铁蛋"意外被闪电击中,"铁蛋"因此拥有了情感了自主性。在随后的任务中,总部对当时情况进行考虑后打算放弃任务,岂料"铁蛋"突然飞离编队,将钻地炸弹投入了敌人的核武器库,造成一场前所未有的核灾难。
  队长本意识到这样一个智能杀人机器必须立即被摧毁,否则会给人类带来更多的灾难,他立即向总部作了汇报。聪明的"铁蛋"获悉他们的行动,于是一场人机追逐战展开了!


Media Info
General
Complete name : 绝密飞行(56.07GB)Stealth.2005.BD.AI_UPSCALE_3840x2160_alq-8_SDR_Finalalang.mkv
Format : Matroska
Format version : Version 4
File size : 56.1 GiB
Duration : 2 h 0 min
Overall bit rate : 66.5 Mb/s
Encoded date : UTC 2020-12-24 22:51:37
Writing application : mkvmerge v51.0.0 ('I Wish') 64-bit
Writing library : libebml v1.4.0 + libmatroska v1.6.2

Video
ID : 1
Format : AVC
Format/Info : Advanced Video Codec
Format profile : Baseline@L5.1
Format settings : 1 Ref Frames
Format settings, CABAC : No
Format settings, Reference fra : 1 frame
Format settings, GOP : M=1, N=12
Codec ID : V_MPEG4/ISO/AVC
Duration : 2 h 0 min
Bit rate : 64.3 Mb/s
Width : 3 840 pixels
Height : 2 160 pixels
Display aspect ratio : 16:9
Frame rate mode : Constant
Frame rate : 23.976 (24000/1001) FPS
Color space : YUV
Chroma subsampling : 4:2:0
Bit depth : 8 bits
Scan type : Progressive
Bits/(Pixel*Frame) : 0.323
Stream size : 54.3 GiB (97%)
Writing library : x264 core 157 r2970 5493be8
Encoding settings : cabac=0 / ref=1 / deblock=0:0:0 / analyse=0:0 / me=dia / subme=0 / psy=1 / psy_rd=1.00:0.00 / mixed_ref=0 / me_range=16 / chroma_me=1 / trellis=0 / 8x8dct=0 / cqm=0 / deadzone=21,11 / fast_pskip=1 / chroma_qp_offset=0 / threads=8 / lookahead_threads=1 / sliced_threads=0 / nr=0 / decimate=1 / interlaced=0 / bluray_compat=0 / constrained_intra=0 / bframes=0 / weightp=0 / keyint=12 / keyint_min=1 / scenecut=0 / intra_refresh=0 / rc=crf / mbtree=0 / crf=15.0 / qcomp=0.60 / qpmin=0 / qpmax=69 / qpstep=4 / ip_ratio=1.40 / aq=0
Default : Yes
Forced : No

Audio #1
ID : 2
Format : AC-3
Format/Info : Audio Coding 3
Commercial name : Dolby Digital
Codec ID : A_AC3
Duration : 2 h 0 min
Bit rate mode : Constant
Bit rate : 640 kb/s
Channel(s) : 6 channels
Channel layout : L R C LFE Ls Rs
Sampling rate : 48.0 kHz
Frame rate : 31.250 FPS (1536 SPF)
Compression mode : Lossy
Stream size : 553 MiB (1%)
Language : Russian
Service kind : Complete Main
Default : Yes
Forced : Yes

Audio #2
ID : 3
Format : DTS
Format/Info : Digital Theater Systems
Codec ID : A_DTS
Duration : 2 h 0 min
Bit rate mode : Constant
Bit rate : 1 510 kb/s
Channel(s) : 6 channels
Channel layout : C L R Ls Rs LFE
Sampling rate : 48.0 kHz
Frame rate : 93.750 FPS (512 SPF)
Bit depth : 24 bits
Compression mode : Lossy
Stream size : 1.27 GiB (2%)
Language : English
Default : No
Forced : No



75356272945849969066_thumb.png 63671052342829122552_thumb.png 47478838108729736670_thumb.png 13446123801471904257_thumb.png

(PS:非4K蓝光REMUX截图)


首发4K蓝光REMUX俄版资源,无视迅雷下载软件,推荐使用qBittorrent等下载软件,有条件的推荐115更好的下载软件!

绝密飞行(56.07GB)Stealth.2005.BD.AI_UPSCALE_3840x2160_alq-8_SDR_Finalalang
游客,如果您要查看本帖隐藏内容请回复





心,爱心.gif
回复

使用道具 举报

62

主题

1375

帖子

3987

积分

4K家园VIP

Rank: 9Rank: 9Rank: 9

积分
3987
发表于 2021-2-20 11:30:06 | 显示全部楼层
前排顶起
回复 支持 反对

使用道具 举报

0

主题

2878

帖子

8813

积分

4K家园VIP

Rank: 9Rank: 9Rank: 9

积分
8813
发表于 2021-2-20 11:49:41 | 显示全部楼层
绝密飞行4k
回复 支持 反对

使用道具 举报

0

主题

6

帖子

27

积分

4K家园VIP

Rank: 9Rank: 9Rank: 9

积分
27
发表于 2021-2-20 13:11:12 | 显示全部楼层
必须顶起
回复

使用道具 举报

0

主题

266

帖子

2551

积分

4K家园VIP

Rank: 9Rank: 9Rank: 9

积分
2551
QQ
发表于 2021-2-20 22:34:41 | 显示全部楼层
谢谢楼主分享,收藏了!
回复 支持 反对

使用道具 举报

0

主题

8

帖子

1834

积分

4K家园VIP

Rank: 9Rank: 9Rank: 9

积分
1834
发表于 2021-2-21 09:23:19 | 显示全部楼层
一代经典 从此无后来者
回复 支持 反对

使用道具 举报

0

主题

28

帖子

204

积分

新手上路

Rank: 1

积分
204
发表于 2021-2-21 10:57:08 | 显示全部楼层
谢谢楼主分享,收藏了!
回复 支持 反对

使用道具 举报

0

主题

4

帖子

153

积分

4K家园VIP

Rank: 9Rank: 9Rank: 9

积分
153
发表于 2021-2-21 11:40:33 | 显示全部楼层
谢谢分享谢谢分享
回复 支持 反对

使用道具 举报

1

主题

186

帖子

4365

积分

中级会员

Rank: 4

积分
4365
发表于 2021-2-21 15:33:02 | 显示全部楼层

谢谢楼主分享
回复 支持 反对

使用道具 举报

1

主题

646

帖子

9188

积分

4K家园VIP

Rank: 9Rank: 9Rank: 9

积分
9188
发表于 2021-2-21 18:41:33 | 显示全部楼层
谢谢楼主分享
回复 支持 反对

使用道具 举报

您需要登录后才可以回帖 登录 | 立即注册

本版积分规则

精彩图文
Archiver|手机版|TAG|Sitemap|新帖|专题|联系我们:邮箱: 4kjia.com@gmail.com   

4k家园   ©2019