[4K UHD 蓝光原盘] 《生死时速/捍卫战警(台)(俄版)》4K蓝光REMUX 版本下载

  [复制链接]

756

主题

776

帖子

1万

积分

超级版主

Rank: 8Rank: 8

积分
10186
 楼主| 发表于 2021-2-23 09:37:46 | 显示全部楼层 |阅读模式
11111.jpg

◎译  名 生死时速/捍卫战警(台)
◎片  名 Speed
◎年  代 1994
◎产  地 美国
◎类  别 动作/惊悚/犯罪/冒险
◎语  言 英语
◎上映日期 1994-06-10(美国)
◎IMDb评分  7.2/10 from 319,117 users
◎IMDb链接  https://www.imdb.com/title/tt0111257/
◎豆瓣评分 8.1/10 from 97839 users
◎豆瓣链接 https://douban.com/subject/1293167/
◎片  长 116 分钟
◎导  演 扬·德·邦特 Jan de Bont
◎编  剧 格雷厄姆·约斯特 Graham Yost
◎主  演 基努·里维斯 Keanu Reeves
       桑德拉·布洛克 Sandra Bullock
       丹尼斯·霍珀 Dennis Hopper
       乔·莫顿 Joe Morton
       杰夫·丹尼尔斯 Jeff Daniels
       阿兰·卢克 Alan Ruck
       格伦·普拉默 Glenn Plummer
       丹尼尔·比利亚雷亚尔 Daniel Villarreal
       贝丝·格兰特 Beth Grant
       Jordan Lund
       理查德·梅尔豪斯 Robert Mailhouse
       派特里克·费斯克勒 Patrick Fischler
       Patrick John Hurley
       Anne O'Sullivan
       博斯塔尔 Beau Starr
       约翰·卡波迪斯 John Capodice
       小托马斯·罗萨莱斯 Thomas Rosales Jr.
       詹姆斯·杜蒙特 James DuMont
       Antonio Mora
       Mark Kriski
       Dagny Hultgreen
       理查德·希夫 Richard Schiff
       桑迪·马丁 Sandy Martin
       Jim Mapp
       Loyda Ramos
       朱莉娅·维拉 Julia Vera
       Randy Algoe
       维罗尼卡·卡维特 Veronica Cartwright
       马克·戈登 Mark Gordon
       Craig Hosking
       J. David Jones
       Christopher C. Murphy
       迈克尔·塔姆布洛 Michael Tamburro
       Eddie Yansick
       户田惠子 Keiko Toda
       沈晓谦 Xiaoqian Shen
       弥尔顿·奎 Milton Quon


◎简  介


  退休炸弹专家佩恩(丹尼斯•霍珀 Dennis Hopper  饰)因不满政府的退休政策,产生了报复社会的念头。他先是在电梯里安装炸弹,劫持人质勒索100万美元赎金,但被特警杰克(基努•李维斯 Keanu Reeves 饰)拆除了炸弹,救出了人质。佩恩趁乱逃脱。

  一计不成,佩恩并没有放弃,他继续他疯狂的计划。这次他炸毁了一辆公车,并在另一辆公车上安装了炸弹,只要该公车的时速超过了50英里就不能再减速,否则就会引起爆炸。当杰克赶上这辆公车时,公车已经满载乘客行驶在高速公路上,时速也早已过了50英里。

  杰克是俗称的“胆生毛”,他冒险上了公车,和佩恩之间的生死时速开始了。


◎获奖情况

  第67届奥斯卡金像奖  (1995)
  最佳剪辑(提名) JohnWright
  最佳音效剪辑 斯蒂芬·亨特·弗利克
  最佳音响 格雷格·兰达克 / DavidMacMillan / 鲍勃·贝默尔 / 史蒂夫·马斯洛

  第48届英国电影学院奖  (1995)
  电影奖最佳剪辑 JohnWright
  电影奖最佳特殊视觉效果(提名) BoydShermis / RonBrinkmann / RichardE.Hollander / 约翰·弗雷泽
  电影奖最佳音效 格雷格·兰达克 / DavidMacMillan / 斯蒂芬·亨特·弗利克 / 史蒂夫·马斯洛 / 鲍勃·贝默尔

  第18届日本电影学院奖  (1995)
  最佳外语片(提名)


Media Info
General
Complete name : 生死时速(57.53GB)Speed.1994.BDRemux.AI_UPSCALE_3840x2160_alq-8_SDR_Finalalang.mkv
Format : Matroska
Format version : Version 4
File size : 57.5 GiB
Duration : 1 h 55 min
Overall bit rate : 71.1 Mb/s
Movie name : Speed (1994) - Release for HDCLUB by SbR
Encoded date : UTC 2020-12-24 23:03:16
Writing application : mkvmerge v51.0.0 ('I Wish') 64-bit
Writing library : libebml v1.4.0 + libmatroska v1.6.2
Cover : Yes
Attachments : cover.jpg / xlog.txt

Video
ID : 1
Format : AVC
Format/Info : Advanced Video Codec
Format profile : Baseline@L5.1
Format settings : 1 Ref Frames
Format settings, CABAC : No
Format settings, Reference fra : 1 frame
Format settings, GOP : M=1, N=12
Codec ID : V_MPEG4/ISO/AVC
Duration : 1 h 55 min
Bit rate : 57.8 Mb/s
Width : 3 840 pixels
Height : 2 160 pixels
Display aspect ratio : 16:9
Frame rate mode : Constant
Frame rate : 23.976 (24000/1001) FPS
Color space : YUV
Chroma subsampling : 4:2:0
Bit depth : 8 bits
Scan type : Progressive
Bits/(Pixel*Frame) : 0.290
Stream size : 46.8 GiB (81%)
Writing library : x264 core 157 r2970 5493be8
Encoding settings : cabac=0 / ref=1 / deblock=0:0:0 / analyse=0:0 / me=dia / subme=0 / psy=1 / psy_rd=1.00:0.00 / mixed_ref=0 / me_range=16 / chroma_me=1 / trellis=0 / 8x8dct=0 / cqm=0 / deadzone=21,11 / fast_pskip=1 / chroma_qp_offset=0 / threads=8 / lookahead_threads=1 / sliced_threads=0 / nr=0 / decimate=1 / interlaced=0 / bluray_compat=0 / constrained_intra=0 / bframes=0 / weightp=0 / keyint=12 / keyint_min=1 / scenecut=0 / intra_refresh=0 / rc=crf / mbtree=0 / crf=16.0 / qcomp=0.60 / qpmin=0 / qpmax=69 / qpstep=4 / ip_ratio=1.40 / aq=0
Default : Yes
Forced : No
Color range : Limited
Color primaries : BT.709
Transfer characteristics : BT.709
Matrix coefficients : BT.709

Audio #1
ID : 2
Format : DTS
Format/Info : Digital Theater Systems
Codec ID : A_DTS
Duration : 1 h 55 min
Bit rate mode : Constant
Bit rate : 1 509 kb/s
Channel(s) : 6 channels
Channel layout : C L R Ls Rs LFE
Sampling rate : 48.0 kHz
Frame rate : 93.750 FPS (512 SPF)
Bit depth : 24 bits
Compression mode : Lossy
Stream size : 1.22 GiB (2%)
Title : R5 20-й Век Фокс СНГ
Language : Russian
Default : Yes
Forced : Yes

Audio #2
ID : 3
Format : DTS
Format/Info : Digital Theater Systems
Codec ID : A_DTS
Duration : 1 h 55 min
Bit rate mode : Constant
Bit rate : 1 509 kb/s
Channel(s) : 6 channels
Channel layout : C L R Ls Rs LFE
Sampling rate : 48.0 kHz
Frame rate : 93.750 FPS (512 SPF)
Bit depth : 24 bits
Compression mode : Lossy
Stream size : 1.22 GiB (2%)
Title : ОРТ
Language : Russian
Default : No
Forced : No

Audio #3
ID : 4
Format : DTS
Format/Info : Digital Theater Systems
Codec ID : A_DTS
Duration : 1 h 55 min
Bit rate mode : Constant
Bit rate : 1 509 kb/s
Channel(s) : 6 channels
Channel layout : C L R Ls Rs LFE
Sampling rate : 48.0 kHz
Frame rate : 93.750 FPS (512 SPF)
Bit depth : 24 bits
Compression mode : Lossy
Stream size : 1.22 GiB (2%)
Title : Карусель
Language : Russian
Default : No
Forced : No

Audio #4
ID : 5
Format : DTS
Format/Info : Digital Theater Systems
Codec ID : A_DTS
Duration : 1 h 55 min
Bit rate mode : Constant
Bit rate : 1 509 kb/s
Channel(s) : 6 channels
Channel layout : C L R Ls Rs LFE
Sampling rate : 48.0 kHz
Frame rate : 93.750 FPS (512 SPF)
Bit depth : 24 bits
Compression mode : Lossy
Stream size : 1.22 GiB (2%)
Title : Гаевский
Language : Russian
Default : No
Forced : No

Audio #5
ID : 6
Format : DTS
Format/Info : Digital Theater Systems
Codec ID : A_DTS
Duration : 1 h 55 min
Bit rate mode : Constant
Bit rate : 1 509 kb/s
Channel(s) : 6 channels
Channel layout : C L R Ls Rs LFE
Sampling rate : 48.0 kHz
Frame rate : 93.750 FPS (512 SPF)
Bit depth : 24 bits
Compression mode : Lossy
Stream size : 1.22 GiB (2%)
Title : Гаврилов
Language : Russian
Default : No
Forced : No

Audio #6
ID : 7
Format : DTS
Format/Info : Digital Theater Systems
Codec ID : A_DTS
Duration : 1 h 55 min
Bit rate mode : Constant
Bit rate : 1 509 kb/s
Channel(s) : 6 channels
Channel layout : C L R Ls Rs LFE
Sampling rate : 48.0 kHz
Frame rate : 93.750 FPS (512 SPF)
Bit depth : 24 bits
Compression mode : Lossy
Stream size : 1.22 GiB (2%)
Title : Живов
Language : Russian
Default : No
Forced : No

Audio #7
ID : 8
Format : DTS
Format/Info : Digital Theater Systems
Codec ID : A_DTS
Duration : 1 h 55 min
Bit rate mode : Constant
Bit rate : 1 509 kb/s
Channel(s) : 6 channels
Channel layout : C L R Ls Rs LFE
Sampling rate : 48.0 kHz
Frame rate : 93.750 FPS (512 SPF)
Bit depth : 24 bits
Compression mode : Lossy
Stream size : 1.22 GiB (2%)
Title : Горчаков
Language : Russian
Default : No
Forced : No

Audio #8
ID : 9
Format : AC-3
Format/Info : Audio Coding 3
Commercial name : Dolby Digital
Codec ID : A_AC3
Duration : 1 h 55 min
Bit rate mode : Constant
Bit rate : 448 kb/s
Channel(s) : 6 channels
Channel layout : L R C LFE Ls Rs
Sampling rate : 48.0 kHz
Frame rate : 31.250 FPS (1536 SPF)
Compression mode : Lossy
Stream size : 371 MiB (1%)
Title : Киномания
Language : Russian
Service kind : Complete Main
Default : No
Forced : No

Audio #9
ID : 10
Format : AC-3
Format/Info : Audio Coding 3
Commercial name : Dolby Digital
Codec ID : A_AC3
Duration : 1 h 55 min
Bit rate mode : Constant
Bit rate : 192 kb/s
Channel(s) : 2 channels
Channel layout : L R
Sampling rate : 48.0 kHz
Frame rate : 31.250 FPS (1536 SPF)
Compression mode : Lossy
Stream size : 159 MiB (0%)
Title : Дубляж, VHS
Language : Russian
Service kind : Complete Main
Default : No
Forced : No

Audio #10
ID : 11
Format : AC-3
Format/Info : Audio Coding 3
Commercial name : Dolby Digital
Codec ID : A_AC3
Duration : 1 h 55 min
Bit rate mode : Constant
Bit rate : 192 kb/s
Channel(s) : 2 channels
Channel layout : L R
Sampling rate : 48.0 kHz
Frame rate : 31.250 FPS (1536 SPF)
Compression mode : Lossy
Stream size : 159 MiB (0%)
Title : ПремьерВидео
Language : Russian
Service kind : Complete Main
Default : No
Forced : No

Audio #11
ID : 12
Format : AC-3
Format/Info : Audio Coding 3
Commercial name : Dolby Digital
Codec ID : A_AC3
Duration : 1 h 55 min
Bit rate mode : Constant
Bit rate : 192 kb/s
Channel(s) : 2 channels
Channel layout : L R
Sampling rate : 48.0 kHz
Frame rate : 31.250 FPS (1536 SPF)
Compression mode : Lossy
Stream size : 159 MiB (0%)
Title : Визгунов
Language : Russian
Service kind : Complete Main
Default : No
Forced : No

Audio #12
ID : 13
Format : AC-3
Format/Info : Audio Coding 3
Commercial name : Dolby Digital
Codec ID : A_AC3
Duration : 1 h 55 min
Bit rate mode : Constant
Bit rate : 192 kb/s
Channel(s) : 2 channels
Channel layout : L R
Sampling rate : 48.0 kHz
Frame rate : 31.250 FPS (1536 SPF)
Compression mode : Lossy
Stream size : 159 MiB (0%)
Title : Младокашкин
Language : Russian
Service kind : Complete Main
Default : No
Forced : No

Audio #13
ID : 14
Format : DTS
Format/Info : Digital Theater Systems
Codec ID : A_DTS
Duration : 1 h 55 min
Bit rate mode : Constant
Bit rate : 1 509 kb/s
Channel(s) : 6 channels
Channel layout : C L R Ls Rs LFE
Sampling rate : 48.0 kHz
Frame rate : 93.750 FPS (512 SPF)
Bit depth : 24 bits
Compression mode : Lossy
Stream size : 1.22 GiB (2%)
Language : English
Default : No
Forced : No

Text #1
ID : 15
Format : UTF-8
Codec ID : S_TEXT/UTF8
Codec ID/Info : UTF-8 Plain Text
Duration : 1 h 50 min
Bit rate : 83 b/s
Count of elements : 1585
Stream size : 67.1 KiB (0%)
Language : Russian
Default : No
Forced : No

Text #2
ID : 16
Format : UTF-8
Codec ID : S_TEXT/UTF8
Codec ID/Info : UTF-8 Plain Text
Duration : 1 h 46 min
Bit rate : 86 b/s
Count of elements : 1639
Stream size : 68.0 KiB (0%)
Language : Russian
Default : No
Forced : No

Text #3
ID : 17
Format : UTF-8
Codec ID : S_TEXT/UTF8
Codec ID/Info : UTF-8 Plain Text
Duration : 1 h 51 min
Bit rate : 63 b/s
Count of elements : 1370
Stream size : 52.4 KiB (0%)
Language : English
Default : No
Forced : No



首发4K蓝光REMUX俄版资源,无视迅雷下载软件,推荐使用qBittorrent等下载软件,有条件的推荐115更好的下载软件!

生死时速(57.53GB)Speed.1994.BDRemux.AI_UPSCALE_3840x2160_alq-8_SDR_Finalalang
游客,如果您要查看本帖隐藏内容请回复


心,爱心.gif



回复

使用道具 举报

49

主题

1265

帖子

3627

积分

4K家园VIP

Rank: 9Rank: 9Rank: 9

积分
3627
发表于 2021-2-23 09:37:58 | 显示全部楼层
前排顶起
回复 支持 反对

使用道具 举报

0

主题

2818

帖子

8716

积分

4K家园VIP

Rank: 9Rank: 9Rank: 9

积分
8716
发表于 2021-2-23 12:05:00 | 显示全部楼层
太好啦&萬分感謝版主的無私發佈分享%
回复 支持 反对

使用道具 举报

2

主题

1287

帖子

3713

积分

4K家园VIP

Rank: 9Rank: 9Rank: 9

积分
3713
发表于 2021-2-23 12:08:54 来自手机 | 显示全部楼层
楼猪辛苦了,支持一下分享好资源
回复 支持 反对

使用道具 举报

0

主题

174

帖子

3851

积分

4K家园VIP

Rank: 9Rank: 9Rank: 9

积分
3851
发表于 2021-2-23 17:23:44 | 显示全部楼层
ddddddddddddddddddd
回复 支持 反对

使用道具 举报

0

主题

14

帖子

1468

积分

4K家园VIP

Rank: 9Rank: 9Rank: 9

积分
1468
发表于 2021-2-23 18:47:18 | 显示全部楼层
太好啦&萬分感謝版主的無私發佈分享%
回复 支持 反对

使用道具 举报

0

主题

266

帖子

2548

积分

4K家园VIP

Rank: 9Rank: 9Rank: 9

积分
2548
QQ
发表于 2021-2-23 19:24:51 | 显示全部楼层
感谢楼主分享,辛苦了!
回复 支持 反对

使用道具 举报

0

主题

8

帖子

34

积分

新手上路

Rank: 1

积分
34
发表于 2021-2-23 22:22:53 | 显示全部楼层
太好了终于找到了,谢谢楼主
回复 支持 反对

使用道具 举报

0

主题

324

帖子

1119

积分

注册会员

Rank: 2

积分
1119
发表于 2021-2-24 20:31:41 | 显示全部楼层
谢谢楼主分享
回复 支持 反对

使用道具 举报

0

主题

5

帖子

21

积分

新手上路

Rank: 1

积分
21
发表于 7 天前 | 显示全部楼层
太好啦&萬分感謝版主的無私發佈分享%
回复 支持 反对

使用道具 举报

您需要登录后才可以回帖 登录 | 立即注册

本版积分规则

精彩图文
Archiver|手机版|TAG|Sitemap|新帖|专题|联系我们:邮箱: 4kjia.com@gmail.com   

4k家园   ©2019