2020 PURPLE KISS – 我的心跳了一跳(表演版) [2160P /MP4/1.46GB]

[复制链接]

2209

主题

2493

帖子

2万

积分

超级版主

Rank: 8Rank: 8

积分
20498
 楼主| 发表于 6 天前 | 显示全部楼层 |阅读模式
1.jpg 2.jpg 3.jpg 4.jpg 5.jpg 6.jpg 7.jpg

General
Complete name                  : PURPLE KISS – 我的心跳了一跳(表演版)[Bugs! 2160p](2020 4K@25fps)www.4kjia.com.mp4
Format                         : MPEG-4
Format profile                 : Base Media
Codec ID                       : isom (isom/iso2/avc1/mp41)
File size                      : 1.46 GiB
Duration                       : 3 min 37 s
Overall bit rate               : 57.7 Mb/s
Writing application            : Lavf55.12.100

Video
ID                             : 2
Format                         : AVC
Format/Info                    : Advanced Video Codec
Format profile                 : Main@L5.1
Format settings                : CABAC / 4 Ref Frames
Format settings, CABAC         : Yes
Format settings, Reference fra : 4 frames
Codec ID                       : avc1
Codec ID/Info                  : Advanced Video Coding
Duration                       : 3 min 37 s
Bit rate                       : 57.4 Mb/s
Width                          : 3 840 pixels
Height                         : 2 160 pixels
Display aspect ratio           : 16:9
Frame rate mode                : Variable
Frame rate                     : 23.944 FPS
Minimum frame rate             : 11.904 FPS
Maximum frame rate             : 24.996 FPS
Original frame rate            : 23.976 (24000/1001) FPS
Color space                    : YUV
Chroma subsampling             : 4:2:0
Bit depth                      : 8 bits
Scan type                      : Progressive
Bits/(Pixel*Frame)             : 0.289
Stream size                    : 1.45 GiB (99%)
Language                       : English
Color range                    : Limited
Color primaries                : BT.709
Transfer characteristics       : BT.709
Matrix coefficients            : BT.709
Codec configuration box        : avcC

Audio
ID                             : 1
Format                         : AAC LC
Format/Info                    : Advanced Audio Codec Low Complexity
Codec ID                       : mp4a-40-2
Duration                       : 3 min 37 s
Bit rate mode                  : Constant
Bit rate                       : 317 kb/s
Channel(s)                     : 2 channels
Channel layout                 : L R
Sampling rate                  : 48.0 kHz
Frame rate                     : 46.875 FPS (1024 SPF)
Compression mode               : Lossy
Stream size                    : 8.23 MiB (1%)
Language                       : English
Default                        : Yes
Alternate group                : 1


PURPLE KISS – 我的心跳了一跳(表演版)[Bugs! 2160p](2020 4K@25fps)www.4kjia.com.jpg


新做种子可能没速度请挂机下载,谢谢!

游客,如果您要查看本帖隐藏内容请回复


另外提供2005-2021年珍藏(4K、8K(MV,演示视)珍高清晰高质量硬盘拷贝(150多GB左右),需要的请内信告知!谢谢!







回复

使用道具 举报

3

主题

1191

帖子

3591

积分

4K家园VIP

Rank: 9Rank: 9Rank: 9

积分
3591
发表于 6 天前 | 显示全部楼层
学习下
回复 支持 反对

使用道具 举报

0

主题

30

帖子

75

积分

新手上路

Rank: 1

积分
75
发表于 6 天前 | 显示全部楼层
有点怀疑
回复

使用道具 举报

0

主题

5

帖子

18

积分

新手上路

Rank: 1

积分
18
发表于 6 天前 | 显示全部楼层
多谢分享,好好欣赏下
回复 支持 反对

使用道具 举报

57

主题

1381

帖子

3999

积分

4K家园VIP

Rank: 9Rank: 9Rank: 9

积分
3999
发表于 6 天前 来自手机 | 显示全部楼层
支持,楼下的跟上哈~
回复 支持 反对

使用道具 举报

0

主题

1146

帖子

3458

积分

4K家园VIP

Rank: 9Rank: 9Rank: 9

积分
3458
发表于 5 天前 | 显示全部楼层
LZ是天才,坚定完毕
回复 支持 反对

使用道具 举报

0

主题

29

帖子

1320

积分

4K家园VIP

Rank: 9Rank: 9Rank: 9

积分
1320
发表于 4 天前 | 显示全部楼层
百度云找不到资源,,,用什么下载好?
回复 支持 反对

使用道具 举报

1

主题

1139

帖子

3431

积分

4K家园VIP

Rank: 9Rank: 9Rank: 9

积分
3431
发表于 4 天前 来自手机 | 显示全部楼层
我只是看看啊,不说话
回复 支持 反对

使用道具 举报

0

主题

4

帖子

28

积分

新手上路

Rank: 1

积分
28
发表于 4 天前 | 显示全部楼层
这是好资源
回复 支持 反对

使用道具 举报

48

主题

1354

帖子

3932

积分

4K家园VIP

Rank: 9Rank: 9Rank: 9

积分
3932
发表于 3 天前 | 显示全部楼层
额.....这个可以有
回复 支持 反对

使用道具 举报

您需要登录后才可以回帖 登录 | 立即注册

本版积分规则

精彩图文
Archiver|手机版|TAG|Sitemap|新帖|专题|联系我们:邮箱: 4kjia.com@gmail.com   

4k家园   ©2019