[4K电影] 《安迪·莫瑞:重启计划》4K高清下载/大小10.92G

[复制链接]

309

主题

319

帖子

3305

积分

4K家园VIP

Rank: 9Rank: 9Rank: 9

积分
3305
 楼主| 发表于 6 天前 | 显示全部楼层 |阅读模式
MV5BZTg5NTZiN2EtN2VmMS00NDg2LThkZDktMDdjZmUyYjY1ZWU4XkEyXkFqcGdeQXVyNjM1NzY2MzA@.jpg

◎译  名 安迪·莫瑞:重启计划
◎片  名 Andy Murray: Resurfacing
◎年  代 2019
◎产  地 美国
◎类  别 剧情
◎语  言 英语
◎上映日期 2019-11-19(英国)
◎IMDb评分  8.0/10 from 800 users
◎IMDb链接  https://www.imdb.com/title/tt11243364/
◎豆瓣评分 0/10 from
◎豆瓣链接 https://movie.douban.com/subject/34909220/
◎片  长 108分钟
◎导  演 Olivia Cappuccini
◎主  演 Andy Murray


◎简介

       这是一部纪录片,记录了这位网球明星在2017-2019年间的毁灭性伤病历程。从外科手术室的前线,到他家的私密角落,我们一起生活,见证安迪最脆弱的时刻。安迪被认为是英国有史以来最伟大的运动员,我们明白为什么他要经历难以想象的事情,重新回到他热爱的运动中去。

Video
ID : 1
Format : HEVC
Format/Info : High Efficiency Video Coding
Format profile : Main 10@L5@Main
HDR format : SMPTE ST 2094 App 4, Version 0, HDR10 compatible
Codec ID : V_MPEGH/ISO/HEVC
Duration : 1 h 48 min
Bit rate : 13.8 Mb/s
Width : 3 840 pixels
Height : 1 920 pixels
Display aspect ratio : 2.000
Frame rate mode : Constant
Frame rate : 25.000 FPS
Standard : NTSC
Color space : YUV
Chroma subsampling : 4:2:0 (Type 2)
Bit depth : 10 bits
Bits/(Pixel*Frame) : 0.075
Stream size : 10.4 GiB (96%)
Default : Yes
Forced : No
Color range : Limited
Color primaries : BT.2020
Transfer characteristics : PQ
Matrix coefficients : BT.2020 non-constant
Mastering display color primaries : BT.2020
Mastering display luminance : min: 0.1000 cd/m2, max: 1000 cd/m2
Maximum Content Light Level : 1000 cd/m2
Maximum Frame-Average Light Level : 339 cd/m2

Audio
ID : 2
Format : E-AC-3
Format/Info : Enhanced AC-3
Commercial name : Dolby Digital Plus
Codec ID : A_EAC3
Duration : 1 h 48 min
Bit rate mode : Constant
Bit rate : 640 kb/s
Channel(s) : 6 channels
Channel layout : L R C LFE Ls Rs
Sampling rate : 48.0 kHz
Frame rate : 31.250 FPS (1536 SPF)
Compression mode : Lossy
Stream size : 497 MiB (4%)
Title : DDP 5.1
Language : English
Service kind : Complete Main
Default : Yes
Forced : No

Text #1
ID : 3
Format : UTF-8
Codec ID : S_TEXT/UTF8
Codec ID/Info : UTF-8 Plain Text
Duration : 1 h 48 min
Bit rate : 85 b/s
Count of elements : 2068
Stream size : 68.1 KiB (0%)
Title : SDH
Language : English
Default : No
Forced : No

Text #2
ID : 4
Format : UTF-8
Codec ID : S_TEXT/UTF8
Codec ID/Info : UTF-8 Plain Text
Duration : 1 h 45 min
Bit rate : 78 b/s
Count of elements : 1309
Stream size : 60.7 KiB (0%)
Language : English
Default : No
Forced : No

95823101618667607756_thumb.jpg 83711043632178604892_thumb.jpg 73973936179252504942_thumb.jpg



游客,如果您要查看本帖隐藏内容请回复




.

73973936179252504942_thumb.jpg
83711043632178604892_thumb.jpg
95823101618667607756_thumb.jpg
回复

使用道具 举报

0

主题

1158

帖子

3300

积分

4K家园VIP

Rank: 9Rank: 9Rank: 9

积分
3300
发表于 6 天前 | 显示全部楼层
为保住菊花,这个一定得回复!
回复 支持 反对

使用道具 举报

0

主题

2608

帖子

8395

积分

4K家园VIP

Rank: 9Rank: 9Rank: 9

积分
8395
发表于 6 天前 | 显示全部楼层
太好啦&萬分感謝版主的無私發佈分享%
回复 支持 反对

使用道具 举报

您需要登录后才可以回帖 登录 | 立即注册

本版积分规则

精彩图文
Archiver|手机版|TAG|Sitemap|新帖|专题|联系我们:邮箱: 4kjia.com@gmail.com   

4k家园   ©2019