[4K UHD 蓝光原盘] 《时空线索/时凶感应(港) (俄版)》4K蓝光REMUX 版本下载

[复制链接]

803

主题

827

帖子

1万

积分

超级版主

Rank: 8Rank: 8

积分
10704
 楼主| 发表于 2021-3-28 19:51:28 | 显示全部楼层 |阅读模式

时空线索 海报.jpg

◎译  名 时空线索 / 似曾相识 / 时凶感应(港) / 超时空效应
◎片  名 Deja Vu
◎年  代 2006
◎产  地 美国 / 英国
◎类  别 动作 / 科幻 / 惊悚
◎语  言 英语
◎上映日期 2006-11-22(美国) / 2007-03-20(中国大陆)
◎IMDb评分 7.0/10 from 287189 users
◎IMDb链接 https://www.imdb.com/title/tt0453467
◎豆瓣评分 7.7/10 from 47817 users
◎豆瓣链接 https://movie.douban.com/subject/1789283/
◎片  长 126 分钟
◎导  演 Tony Scott
◎编  剧 Bill Marsilii / Terry Rossio
◎主  演 Denzel Washington
      Paula Patton
      Val Kilmer
      James Caviezel
      Adam Goldberg
      Bruce Greenwood
      Elle Fanning


◎简  介

  一艘货轮意外爆炸,特工道格(Denzel Washington 丹泽尔?华盛顿 饰)奉命前往调查。然而,当他到达现场时,却发现自己分明是第一次到这个地方,却对眼前的场景十分熟悉。道格经过缜密调查,发现了这起爆炸事件与自己有着密不可分的关系。
  他借助政府的时光实验室――这里可以获悉4天内任何地方发生的任何事件,发现了自己与一名神秘女子有着不同寻常的关系,而这名女子将导致未来的一场与自己有关的大灾难!
  道格必须回到过去,将历史从一个实相引向另一个实相才能阻止这场灾难的发生。


Media Info
General
Complete name :时空线索(54.87GB)Deja Vu.2006.BDRemux.AI_UPSCALE_3840x2160_alq-8_SDR_Finalalang.mkv
Format : Matroska
Format version : Version 4
File size : 54.9 GiB
Duration : 2 h 6 min
Overall bit rate mode : Variable
Overall bit rate : 62.1 Mb/s
Movie name : Deja Vu (2006) - Release for HDCLUB
Encoded date : UTC 2020-12-15 14:33:50
Writing application : mkvmerge v51.0.0 ('I Wish') 64-bit
Writing library : libebml v1.4.0 + libmatroska v1.6.2
Attachments : CronosPro-Bold.ttf / CronosPro-Semibold.ttf / CronosPro-SemiboldIt.ttf / times.ttf

Video
ID : 1
Format : AVC
Format/Info : Advanced Video Codec
Format profile : Baseline@L5.1
Format settings : 1 Ref Frames
Format settings, CABAC : No
Format settings, Reference fra : 1 frame
Format settings, GOP : M=1, N=12
Codec ID : V_MPEG4/ISO/AVC
Duration : 2 h 6 min
Bit rate : 54.9 Mb/s
Width : 3 840 pixels
Height : 2 160 pixels
Display aspect ratio : 16:9
Frame rate mode : Constant
Frame rate : 23.976 (24000/1001) FPS
Color space : YUV
Chroma subsampling : 4:2:0
Bit depth : 8 bits
Scan type : Progressive
Bits/(Pixel*Frame) : 0.276
Stream size : 48.5 GiB (88%)
Writing library : x264 core 157 r2970 5493be8
Encoding settings : cabac=0 / ref=1 / deblock=0:0:0 / analyse=0:0 / me=dia / subme=0 / psy=1 / psy_rd=1.00:0.00 / mixed_ref=0 / me_range=16 / chroma_me=1 / trellis=0 / 8x8dct=0 / cqm=0 / deadzone=21,11 / fast_pskip=1 / chroma_qp_offset=0 / threads=8 / lookahead_threads=1 / sliced_threads=0 / nr=0 / decimate=1 / interlaced=0 / bluray_compat=0 / constrained_intra=0 / bframes=0 / weightp=0 / keyint=12 / keyint_min=1 / scenecut=0 / intra_refresh=0 / rc=crf / mbtree=0 / crf=17.0 / qcomp=0.60 / qpmin=0 / qpmax=69 / qpstep=4 / ip_ratio=1.40 / aq=0
Default : Yes
Forced : No

Audio #1
ID : 2
Format : AC-3
Format/Info : Audio Coding 3
Commercial name : Dolby Digital
Codec ID : A_AC3
Duration : 2 h 6 min
Bit rate mode : Constant
Bit rate : 384 kb/s
Channel(s) : 6 channels
Channel layout : L R C LFE Ls Rs
Sampling rate : 48.0 kHz
Frame rate : 31.250 FPS (1536 SPF)
Compression mode : Lossy
Stream size : 347 MiB (1%)
Title : AC3 5.1 384 kbps Дубляж - R5 #1
Language : Russian
Service kind : Complete Main
Default : Yes
Forced : Yes

Audio #2
ID : 3
Format : DTS
Format/Info : Digital Theater Systems
Codec ID : A_DTS
Duration : 2 h 6 min
Bit rate mode : Constant
Bit rate : 1 510 kb/s
Channel(s) : 6 channels
Channel layout : C L R Ls Rs LFE
Sampling rate : 48.0 kHz
Frame rate : 93.750 FPS (512 SPF)
Bit depth : 16 bits
Compression mode : Lossy
Stream size : 1.33 GiB (2%)
Title : DTS 5.1 1536 kbps Многоголосый закадровый - Киномания #3
Language : Russian
Default : No
Forced : No

Audio #3
ID : 4
Format : DTS
Format/Info : Digital Theater Systems
Codec ID : A_DTS
Duration : 2 h 6 min
Bit rate mode : Constant
Bit rate : 1 510 kb/s
Channel(s) : 6 channels
Channel layout : C L R Ls Rs LFE
Sampling rate : 48.0 kHz
Frame rate : 93.750 FPS (512 SPF)
Bit depth : 16 bits
Compression mode : Lossy
Stream size : 1.33 GiB (2%)
Title : DTS 5.1 1536 kbps Двухголосый закадровый - П.Глянц и И.Королёва #4
Language : Russian
Default : No
Forced : No

Audio #4
ID : 5
Format : DTS
Format/Info : Digital Theater Systems
Codec ID : A_DTS
Duration : 2 h 6 min
Bit rate mode : Constant
Bit rate : 1 510 kb/s
Channel(s) : 6 channels
Channel layout : C L R Ls Rs LFE
Sampling rate : 48.0 kHz
Frame rate : 93.750 FPS (512 SPF)
Bit depth : 16 bits
Compression mode : Lossy
Stream size : 1.33 GiB (2%)
Title : DTS 5.1 1536 kbps Одноголосый закадровый - А.Гаврилов #5
Language : Russian
Default : No
Forced : No

Audio #5
ID : 6
Format : DTS
Format/Info : Digital Theater Systems
Codec ID : A_DTS
Duration : 2 h 6 min
Bit rate mode : Constant
Bit rate : 755 kb/s
Channel(s) : 6 channels
Channel layout : C L R Ls Rs LFE
Sampling rate : 48.0 kHz
Frame rate : 93.750 FPS (512 SPF)
Bit depth : 24 bits
Compression mode : Lossy
Stream size : 682 MiB (1%)
Title : DTS 5.1 768 kbps Одноголосый закадровый - С.Рябов #6
Language : Russian
Default : No
Forced : No

Audio #6
ID : 7
Format : DTS
Format/Info : Digital Theater Systems
Codec ID : A_DTS
Duration : 2 h 6 min
Bit rate mode : Constant
Bit rate : 1 510 kb/s
Channel(s) : 6 channels
Channel layout : C L R Ls Rs LFE
Sampling rate : 48.0 kHz
Frame rate : 93.750 FPS (512 SPF)
Bit depth : 16 bits
Compression mode : Lossy
Stream size : 1.33 GiB (2%)
Title : DTS 5.1 1536 kbps Original Track #7
Language : English
Default : No
Forced : No

Audio #7
ID : 8
Format : Vorbis
Format settings, Floor : 1
Codec ID : A_VORBIS
Duration : 2 h 6 min
Bit rate mode : Variable
Bit rate : 80.0 kb/s
Channel(s) : 2 channels
Sampling rate : 48.0 kHz
Frame rate : 62.694 FPS (766 SPF)
Compression mode : Lossy
Stream size : 63.7 MiB (0%)
Title : Vorbis 2.0 80 kbps - Commentary Track #8
Writing library : libVorbis 1.1.1/1.1.2 (UTC 2005-03-04)
Language : English
Default : No
Forced : No

Text #1
ID : 9
Format : UTF-8
Codec ID : S_TEXT/UTF8
Codec ID/Info : UTF-8 Plain Text
Duration : 1 h 57 min
Bit rate : 95 b/s
Count of elements : 1580
Stream size : 82.3 KiB (0%)
Language : Russian
Default : No
Forced : No

Text #2
ID : 10
Format : UTF-8
Codec ID : S_TEXT/UTF8
Codec ID/Info : UTF-8 Plain Text
Duration : 1 h 55 min
Bit rate : 66 b/s
Count of elements : 1531
Stream size : 56.3 KiB (0%)
Language : English
Default : No
Forced : No




首发4K蓝光REMUX俄版资源,无视迅雷下载软件,推荐使用qBittorrent等下载软件,有条件的推荐115更好的下载软件!

时空线索(54.87GB)Deja Vu.2006.BDRemux.AI_UPSCALE_3840x2160_alq-8_SDR_Finalalang
游客,如果您要查看本帖隐藏内容请回复


心,爱心.gif

回复

使用道具 举报

2

主题

1259

帖子

3627

积分

中级会员

Rank: 4

积分
3627
发表于 2021-3-28 19:51:33 | 显示全部楼层
我只是看看啊,不说话
回复 支持 反对

使用道具 举报

0

主题

3503

帖子

9830

积分

4K家园VIP

Rank: 9Rank: 9Rank: 9

积分
9830
发表于 2021-3-28 22:56:34 | 显示全部楼层
太好啦&萬分感謝版主的無私發佈分享%
回复 支持 反对

使用道具 举报

0

主题

192

帖子

1305

积分

4K家园VIP

Rank: 9Rank: 9Rank: 9

积分
1305
QQ
发表于 2021-3-28 23:36:42 | 显示全部楼层
让 江小白 来看看帖子里藏了啥好东西~~~
回复 支持 反对

使用道具 举报

0

主题

2

帖子

270

积分

新手上路

Rank: 1

积分
270
发表于 2021-3-29 07:46:54 | 显示全部楼层

Browse over 500 000 of the best porn galleries, daily updated collections

Sexy teen photo galleries
http://tight.pussy.dinuba.alypics.com/?post-mallory

free nasty porn abduction sex german tube porn discreet black porn porn eskimon slave and master porn videos

回复 支持 反对

使用道具 举报

0

主题

399

帖子

1419

积分

注册会员

Rank: 2

积分
1419
发表于 2021-3-29 09:38:43 | 显示全部楼层
帖帖皆辛苦
回复 支持 反对

使用道具 举报

0

主题

281

帖子

2692

积分

4K家园VIP

Rank: 9Rank: 9Rank: 9

积分
2692
QQ
发表于 2021-3-29 12:26:03 | 显示全部楼层
谢谢楼主分享,还是这些电影好看!
回复 支持 反对

使用道具 举报

0

主题

29

帖子

408

积分

新手上路

Rank: 1

积分
408
发表于 2021-3-30 20:12:24 | 显示全部楼层
經典電影  感謝分享
回复 支持 反对

使用道具 举报

0

主题

1144

帖子

3446

积分

4K家园VIP

Rank: 9Rank: 9Rank: 9

积分
3446
发表于 2021-3-31 07:19:23 | 显示全部楼层
多发些资源啊
回复 支持 反对

使用道具 举报

0

主题

1197

帖子

3601

积分

4K家园VIP

Rank: 9Rank: 9Rank: 9

积分
3601
发表于 3 天前 | 显示全部楼层
还有没有别的资源,多分享些
回复 支持 反对

使用道具 举报

您需要登录后才可以回帖 登录 | 立即注册

本版积分规则

精彩图文
Archiver|手机版|TAG|Sitemap|新帖|专题|联系我们:邮箱: 4kjia.com@gmail.com   

4k家园   ©2019