[4K电影] 《别告诉她/不要告诉她》4K高清下载/大小12.38GB

[复制链接]

359

主题

369

帖子

3636

积分

4K家园VIP

Rank: 9Rank: 9Rank: 9

积分
3636
 楼主| 发表于 2021-2-22 11:07:12 | 显示全部楼层 |阅读模式

MV5BMWE3MjViNWUtY2VjYS00ZDBjLTllMzYtN2FkY2QwYmRiMDhjXkEyXkFqcGdeQXVyODQzNTE3ODc@._V1_.jpg

◎译  名 别告诉她/不要告诉她/别对她说/告别婚礼
◎片  名 The Farewell
◎年    代 2019
◎产  地 美国
◎类  别 剧情/家庭
◎语  言 英语/汉语普通话/日语
◎上映日期 2019-01-25(圣丹斯电影节)/2019-07-12(美国)/2019-11-22(中国大陆)
◎IMDb链接 https://www.imdb.com/title/tt8637428/
◎豆瓣评分 7.7/10 from 7081 users
◎豆瓣链接 https://douban.com/subject/30390144/
◎片  长 98分钟
◎导  演 王子逸 Lulu Wang
◎编  剧 王子逸 Lulu Wang
◎主  演 奥卡菲娜 Awkwafina
      马志 Tzi Ma
      林晓杰 Diana Lin
      赵淑珍 Shuzhen Zhao
      姜永波 Yongbo Jiang
      水原碧衣 Aoi Mizuhara
      章静 Jing Zhang
      吉尔·佩雷斯-亚伯拉罕 Gil Perez-Abraham
      刘敬宇 Jim Liu
      陈涵 Han Chen


剧情简介  ·  ·  ·  ·  ·  ·

  比莉出生在美国,父母专注事业,只能把小比莉寄养在东北老家,基因狂恋中国菜,比莉和抚养自己的爷爷奶奶感情深厚。可惜童年太短,很快比莉就被爸妈接到美国,着力培养,早已是美国作风,中文都磕磕碰碰,没几句是完整的。
  一天,一大家人得知奶奶癌症晚期,都急着从日本、美国回老家,但比莉的爸妈又不愿把这个伤心的消息告诉她,但比莉透支信用卡,一张飞机票回到了家乡,随后发现了一家人的秘密,比莉想用美国人的思维告诉还蒙在鼓里的奶奶,让她坦然温馨走完最后一程,但比莉父母辈却坚决不同意,坚持中国人的善意隐瞒送走奶奶,甚至为一家人忽如其来的大团聚编了一个大慌——为奶奶在日本的大孙子在家乡办一场风光的婚礼。喜丧的核心矛盾就出现了,红白喜事的热闹夹杂其间,开心误会和催泪也一一展开 。

获奖情况  ·  ·  ·  ·  ·  ·

  第35届圣丹斯电影节(2019)
  评审团大奖 剧情片(提名) 王子逸

  第29届哥谭独立电影奖(2019)
  最佳影片(提名)
  最佳女演员(提名) 奥卡菲娜
  最佳剧本(提名) 王子逸


Video
ID : 1
Format : HEVC
Format/Info : High Efficiency Video Coding
Format profile : Main@L5@Main
Codec ID : V_MPEGH/ISO/HEVC
Duration : 1 h 39 min
Bit rate : 14.7 Mb/s
Width : 3 840 pixels
Height : 2 160 pixels
Display aspect ratio : 16:9
Frame rate mode : Constant
Frame rate : 23.976 (24000/1001) FPS
Original frame rate : 23.976 (23976/1000) FPS
Color space : YUV
Chroma subsampling : 4:2:0
Bit depth : 8 bits
Bits/(Pixel*Frame) : 0.074
Stream size : 10.3 GiB (83%)
Writing library : x265 3.0:[Linux][GCC 4.8.5][64 bit] 8bit
Encoding settings : cpuid=1111039 / frame-threads=6 / wpp / no-pmode / no-pme / no-psnr / no-ssim / log-level=2 / input-csp=1 / input-res=3840x2160 / interlace=0 / total-frames=0 / level-idc=0 / high-tier=1 / uhd-bd=0 / ref=3 / no-allow-non-conformance / no-repeat-headers / annexb / no-aud / no-hrd / info / hash=0 / no-temporal-layers / no-open-gop / min-keyint=4 / keyint=48 / gop-lookahead=0 / bframes=4 / b-adapt=2 / b-pyramid / bframe-bias=0 / rc-lookahead=80 / lookahead-slices=4 / scenecut=0 / radl=0 / no-splice / no-intra-refresh / ctu=64 / min-cu-size=8 / rect / no-amp / max-tu-size=32 / tu-inter-depth=1 / tu-intra-depth=1 / limit-tu=0 / rdoq-level=2 / dynamic-rd=0.00 / no-ssim-rd / signhide / no-tskip / nr-intra=0 / nr-inter=0 / no-constrained-intra / strong-intra-smoothing / max-merge=3 / limit-refs=3 / limit-modes / me=2 / subme=3 / merange=64 / temporal-mvp / weightp / no-weightb / no-analyze-src-pics / deblock=0:0 / no-sao / no-sao-non-deblock / rd=4 / no-early-skip / no-rskip / no-fast-intra / no-tskip-fast / no-cu-lossless / no-b-intra / no-splitrd-skip / rdpenalty=0 / psy-rd=4.00 / psy-rdoq=10.00 / no-rd-refine / no-lossless / cbqpoffs=0 / crqpoffs=0 / rc=abr / bitrate=15000 / qcomp=0.60 / qpstep=1 / stats-write=0 / stats-read=0 / vbv-maxrate=22500 / vbv-bufsize=22500 / vbv-init=0.9 / ipratio=1.10 / pbratio=1.00 / aq-mode=0 / aq-strength=0.00 / no-cutree / zone-count=0 / no-strict-cbr / qg-size=32 / rc-grain / qpmax=69 / qpmin=0 / const-vbv / sar=1 / overscan=0 / videoformat=5 / range=0 / colorprim=1 / transfer=1 / colormatrix=1 / chromaloc=0 / display-window=0 / max-cll=0,0 / min-luma=0 / max-luma=255 / log2-max-poc-lsb=8 / vui-timing-info / vui-hrd-info / slices=1 / no-opt-qp-pps / no-opt-ref-list-length-pps / no-multi-pass-opt-rps / scenecut-bias=0.05 / no-opt-cu-delta-qp / no-aq-motion / no-hdr / no-hdr-opt / no-dhdr10-opt / no-idr-recovery-sei / analysis-reuse-level=5 / scale-factor=0 / refine-intra=0 / refine-inter=0 / refine-mv=0 / refine-ctu-distortion=0 / no-limit-sao / ctu-info=0 / no-lowpass-dct / refine-analysis-type=0 / copy-pic=1 / max-ausize-factor=1.0 / no-dynamic-refine / no-single-sei / no-hevc-aq / qp-adaptation-range=1.00
Default : Yes
Forced : No
Color range : Limited
Color primaries : BT.709
Transfer characteristics : BT.709
Matrix coefficients : BT.709

Audio
ID : 2
Format : DTS XLL
Format/Info : Digital Theater Systems
Commercial name : DTS-HD Master Audio
Codec ID : A_DTS
Duration : 1 h 39 min
Bit rate mode : Variable
Bit rate : 2 975 kb/s
Channel(s) : 6 channels
Channel layout : C L R Ls Rs LFE
Sampling rate : 48.0 kHz
Frame rate : 93.750 FPS (512 SPF)
Bit depth : 24 bits
Compression mode : Lossless
Stream size : 2.08 GiB (17%)
Title : DTS-HD MA 5.1
Language : English
Default : Yes
Forced : No

Text #1
ID : 3
Format : UTF-8
Codec ID : S_TEXT/UTF8
Codec ID/Info : UTF-8 Plain Text
Duration : 1 h 31 min
Bit rate : 22 b/s
Count of elements : 597
Stream size : 15.4 KiB (0%)
Title : English-SRT
Language : English
Default : Yes
Forced : No

Text #2
ID : 4
Format : PGS
Muxing mode : zlib
Codec ID : S_HDMV/PGS
Codec ID/Info : Picture based subtitle format used on BDs/HD-DVDs
Duration : 1 h 31 min
Bit rate : 15.4 kb/s
Count of elements : 1237
Stream size : 10.1 MiB (0%)
Title : English-PGS
Language : English
Default : No
Forced : No

Text #3
ID : 5
Format : PGS
Muxing mode : zlib
Codec ID : S_HDMV/PGS
Codec ID/Info : Picture based subtitle format used on BDs/HD-DVDs
Duration : 1 h 38 min
Bit rate : 29.9 kb/s
Count of elements : 2230
Stream size : 21.2 MiB (0%)
Title : Spanish-PGS
Language : Spanish
Default : No
Forced : No


91735582555719909921_thumb.jpg 29703257784524556344_thumb.jpg 15424764633503585454_thumb.jpg


游客,如果您要查看本帖隐藏内容请回复




.
回复

使用道具 举报

55

主题

1432

帖子

4112

积分

4K家园VIP

Rank: 9Rank: 9Rank: 9

积分
4112
发表于 2021-2-22 11:07:26 | 显示全部楼层
佩服佩服!
回复 支持 反对

使用道具 举报

1

主题

1197

帖子

3607

积分

4K家园VIP

Rank: 9Rank: 9Rank: 9

积分
3607
发表于 2021-2-22 11:07:26 | 显示全部楼层
顶起顶起顶起
回复 支持 反对

使用道具 举报

39

主题

1330

帖子

3784

积分

4K家园VIP

Rank: 9Rank: 9Rank: 9

积分
3784
发表于 2021-2-22 11:07:26 | 显示全部楼层
好像还可以
回复 支持 反对

使用道具 举报

0

主题

2818

帖子

8716

积分

4K家园VIP

Rank: 9Rank: 9Rank: 9

积分
8716
发表于 2021-2-22 12:07:21 | 显示全部楼层
太好啦&萬分感謝版主的無私發佈分享%
回复 支持 反对

使用道具 举报

0

主题

1221

帖子

3525

积分

4K家园VIP

Rank: 9Rank: 9Rank: 9

积分
3525
发表于 2021-2-24 19:54:33 | 显示全部楼层
正需要
回复 支持 反对

使用道具 举报

2

主题

1023

帖子

3091

积分

4K家园VIP

Rank: 9Rank: 9Rank: 9

积分
3091
发表于 7 天前 | 显示全部楼层
回个帖子,下班咯~
回复 支持 反对

使用道具 举报

您需要登录后才可以回帖 登录 | 立即注册

本版积分规则

精彩图文
Archiver|手机版|TAG|Sitemap|新帖|专题|联系我们:邮箱: 4kjia.com@gmail.com   

4k家园   ©2019