[4K电影] 《德语课》4K高清下载/大小12.38GB

[复制链接]

322

主题

332

帖子

3406

积分

4K家园VIP

Rank: 9Rank: 9Rank: 9

积分
3406
 楼主| 发表于 7 天前 | 显示全部楼层 |阅读模式
MV5BN2ZkMzBmNTUtM2M1Zi00ODA3LWJhMDAtYTQ4MTgyYjI1ZWIwXkEyXkFqcGdeQXVyMDU5MDEyMA@@.jpg

◎译  名 德语课
◎片  名 The.German.Lesson
◎年    代 2019
◎产  地 美国
◎类  别 剧情
◎语  言 德语
◎上映日期 2019-10-03(德国)
◎IMDb链接 https://www.imdb.com/title/tt7785866/
◎豆瓣评分 7.5/10 from 1214 users
◎豆瓣链接 https://movie.douban.com/subject/30309242/
◎导  演 克里斯蒂安·施沃霍夫
◎编  剧 西格弗里德·伦茨 / Heide Schwochow
◎主  演 路易斯·霍夫曼
                   玛丽亚·德拉格斯  
                   松佳·里奇特  
                   托比亚斯·莫雷蒂  
                   约翰娜·沃卡莱克  
                   乌尔里希·诺登  
                    Levi Eisenblätter  
                   Mette Lysdahl  
                  克里斯蒂安·塞里迪诺  
                  达格玛·曼泽尔  
                  Klaus Peeck


◎简介:

  改编自西格弗里德·伦茨的小说《德语课》


Video
ID : 1
Format : HEVC
Format/Info : High Efficiency Video Coding
Format profile : Main 10@L5@Main
HDR format : SMPTE ST 2094 App 4, Version 1, HDR10+ Profile B compatible
Codec ID : V_MPEGH/ISO/HEVC
Duration : 2 h 4 min
Bit rate : 14.8 Mb/s
Width : 3 840 pixels
Height : 2 080 pixels
Display aspect ratio : 1.85:1
Frame rate mode : Constant
Frame rate : 24.000 FPS
Color space : YUV
Chroma subsampling : 4:2:0
Bit depth : 10 bits
Bits/(Pixel*Frame) : 0.077
Stream size : 12.9 GiB (79%)
Default : Yes
Forced : No
Color range : Limited
Color primaries : BT.2020
Transfer characteristics : PQ
Matrix coefficients : BT.2020 non-constant
Mastering display color primaries : BT.2020
Mastering display luminance : min: 0.0001 cd/m2, max: 1000 cd/m2
Maximum Content Light Level : 1471 cd/m2
Maximum Frame-Average Light Level : 92 cd/m2

Audio #1
ID : 2
Format : DTS XLL
Format/Info : Digital Theater Systems
Commercial name : DTS-HD Master Audio
Codec ID : A_DTS
Duration : 2 h 5 min
Bit rate mode : Variable
Bit rate : 3 077 kb/s
Channel(s) : 6 channels
Channel layout : C L R Ls Rs LFE
Sampling rate : 48.0 kHz
Frame rate : 93.750 FPS (512 SPF)
Bit depth : 24 bits
Compression mode : Lossless
Stream size : 2.69 GiB (16%)
Title : DTS-HD MA 5.1
Language : German
Default : Yes
Forced : No

Audio #2
ID : 3
Format : E-AC-3
Format/Info : Enhanced AC-3
Commercial name : Dolby Digital Plus
Codec ID : A_EAC3
Duration : 2 h 4 min
Bit rate mode : Constant
Bit rate : 640 kb/s
Channel(s) : 6 channels
Channel layout : L R C LFE Ls Rs
Sampling rate : 48.0 kHz
Frame rate : 31.250 FPS (1536 SPF)
Compression mode : Lossy
Stream size : 572 MiB (3%)
Title : DDP 5.1
Language : German
Service kind : Complete Main
Default : No
Forced : No

Audio #3
ID : 4
Format : AC-3
Format/Info : Audio Coding 3
Commercial name : Dolby Digital
Codec ID : A_AC3
Duration : 2 h 4 min
Bit rate mode : Constant
Bit rate : 192 kb/s
Channel(s) : 2 channels
Channel layout : L R
Sampling rate : 48.0 kHz
Frame rate : 31.250 FPS (1536 SPF)
Compression mode : Lossy
Stream size : 172 MiB (1%)
Title : DD 2.0
Language : English
Service kind : Complete Main
Default : No
Forced : No

Text #1
ID : 5
Format : UTF-8
Codec ID : S_TEXT/UTF8
Codec ID/Info : UTF-8 Plain Text
Duration : 2 h 1 min
Bit rate : 21 b/s
Count of elements : 704
Stream size : 18.8 KiB (0%)
Title : English-SRT
Language : English
Default : Yes
Forced : Yes

Text #2
ID : 6
Format : UTF-8
Codec ID : S_TEXT/UTF8
Codec ID/Info : UTF-8 Plain Text
Duration : 2 h 0 min
Bit rate : 26 b/s
Count of elements : 938
Stream size : 23.7 KiB (0%)
Title : German-SRT
Language : German
Default : No
Forced : No

Text #3
ID : 7
Format : PGS
Muxing mode : zlib
Codec ID : S_HDMV/PGS
Codec ID/Info : Picture based subtitle format used on BDs/HD-DVDs
Duration : 2 h 0 min
Bit rate : 17.9 kb/s
Count of elements : 1876
Stream size : 15.5 MiB (0%)
Title : German-PGS
Language : German
Default : No
Forced : No


26769647472700805744_thumb.jpg 53875585607347937677_thumb.jpg 70806382843704087430_thumb.jpg

游客,如果您要查看本帖隐藏内容请回复




.
回复

使用道具 举报

0

主题

1468

帖子

3992

积分

4K家园VIP

Rank: 9Rank: 9Rank: 9

积分
3992
发表于 7 天前 | 显示全部楼层
差评
回复 支持 反对

使用道具 举报

0

主题

2698

帖子

8533

积分

4K家园VIP

Rank: 9Rank: 9Rank: 9

积分
8533
发表于 7 天前 | 显示全部楼层
太好啦&萬分感謝版主的無私發佈分享%
回复 支持 反对

使用道具 举报

3

主题

1139

帖子

3439

积分

4K家园VIP

Rank: 9Rank: 9Rank: 9

积分
3439
发表于 4 天前 | 显示全部楼层
传说中的沙发???哇卡卡
回复 支持 反对

使用道具 举报

您需要登录后才可以回帖 登录 | 立即注册

本版积分规则

精彩图文
Archiver|手机版|TAG|Sitemap|新帖|专题|联系我们:邮箱: 4kjia.com@gmail.com   

4k家园   ©2019