[4K电影] 《 低潮 》4K高清下载/大小9.07GB

[复制链接]

319

主题

329

帖子

3391

积分

4K家园VIP

Rank: 9Rank: 9Rank: 9

积分
3391
 楼主| 发表于 7 天前 | 显示全部楼层 |阅读模式
470908ae75e1c_副本.png

◎译  名 低潮
◎片  名 Low Tide
◎年  代 2018
◎产  地 美国
◎类  别 剧情
◎语  言 英语
◎上映日期 2019-04-28(翠贝卡电影节)
◎IMDb评分 6.3/10 from 1990 users
◎IMDb链接 https://www.imdb.com/title/tt7434324/
◎豆瓣评分 6.6/10 from 89 users
◎豆瓣链接 https://movie.douban.com/subject/27166160/
◎片  长 86分钟
◎编  剧 杰登·马泰尔 Jaeden Martell / 谢伊·惠格姆 Shea Whigham
◎主  演 杰登·马泰尔 Jaeden Martell
      谢伊·惠格姆 Shea Whigham
      克里斯汀·弗劳赛斯 Kristine Froseth
      詹姆斯·帕克斯顿 James Paxton

◎简  介

  艾伦、瑞德和斯米蒂在泽西海岸度过盛夏,漫步在木板路上时陷入困境。但他们发现了宝藏,这使得朋友们的怀疑和暴力升级。
Video
ID : 1
Format : HEVC
Format/Info : High Efficiency Video Coding
Format profile : Main 10@L5@Main
HDR format : SMPTE ST 2094 App 4, Version 1, HDR10+ Profile B compatible
Codec ID : V_MPEGH/ISO/HEVC
Duration : 1 h 25 min
Bit rate : 14.5 Mb/s
Width : 3 840 pixels
Height : 1 600 pixels
Display aspect ratio : 2.40:1
Frame rate mode : Constant
Frame rate : 23.976 (24000/1001/189150) FPS
Color space : YUV
Chroma subsampling : 4:2:0
Bit depth : 10 bits
Bits/(Pixel*Frame) : 0.098
Stream size : 8.69 GiB (96%)
Default : Yes
Forced : No
Color range : Limited
Color primaries : BT.2020
Transfer characteristics : PQ
Matrix coefficients : BT.2020 non-constant
Mastering display color primaries : Display P3
Mastering display luminance : min: 0.0020 cd/m2, max: 1000 cd/m2
Maximum Content Light Level : 7550 cd/m2
Maximum Frame-Average Light Level : 109 cd/m2

Audio
ID : 2
Format : E-AC-3
Format/Info : Enhanced AC-3
Commercial name : Dolby Digital Plus
Codec ID : A_EAC3
Duration : 1 h 25 min
Bit rate mode : Constant
Bit rate : 640 kb/s
Channel(s) : 6 channels
Channel layout : L R C LFE Ls Rs
Sampling rate : 48.0 kHz
Frame rate : 31.250 FPS (1536 SPF)
Compression mode : Lossy
Stream size : 393 MiB (4%)
Title : DDP 5.1
Language : English
Service kind : Complete Main
Default : Yes
Forced : No

Text
ID : 3
Format : UTF-8
Codec ID : S_TEXT/UTF8
Codec ID/Info : UTF-8 Plain Text
Duration : 1 h 21 min
Bit rate : 56 b/s
Count of elements : 1252
Stream size : 33.9 KiB (0%)
Title : SDH
Language : English
Default : No
Forced : No


27739921782567176958_thumb.png 53092727396308670834_thumb.png 83905933371102996031_thumb.png

游客,如果您要查看本帖隐藏内容请回复




.
回复

使用道具 举报

1

主题

1183

帖子

3554

积分

4K家园VIP

Rank: 9Rank: 9Rank: 9

积分
3554
发表于 7 天前 | 显示全部楼层
看着好像不错
回复 支持 反对

使用道具 举报

0

主题

2695

帖子

8530

积分

4K家园VIP

Rank: 9Rank: 9Rank: 9

积分
8530
发表于 7 天前 | 显示全部楼层
太好啦&萬分感謝版主的無私發佈分享%
回复 支持 反对

使用道具 举报

您需要登录后才可以回帖 登录 | 立即注册

本版积分规则

精彩图文
Archiver|手机版|TAG|Sitemap|新帖|专题|联系我们:邮箱: 4kjia.com@gmail.com   

4k家园   ©2019