[4K电影] 《家有儿女之最佳拍档 》4K高清下载/大小12.17GB

[复制链接]

359

主题

369

帖子

3636

积分

4K家园VIP

Rank: 9Rank: 9Rank: 9

积分
3636
 楼主| 发表于 2021-2-22 12:18:53 | 显示全部楼层 |阅读模式
573a2d70a9670_副本.png

◎译  名 家有儿女之最佳拍档/Dogs Best Friend/像狗一样思考/狗最好的朋友
◎片  名 Think Like a Dog
◎年  代 2020
◎产  地 中国大陆,美国,英国
◎类  别 喜剧 / 家庭
◎语  言 英语
◎上映日期 2020-06-09(美国)
◎IMDb评分 5.1/10 from 1099 users
◎IMDb链接 https://www.imdb.com/title/tt5929654/
◎豆瓣评分 /10 from 0 users
◎豆瓣链接 https://movie.douban.com/subject/30213316/
◎导  演 吉尔·约格尔 Gil Junger
◎编  剧 吉尔·约格尔 Gil Junger / 约翰·J·施特劳斯 John J. Strauss
◎主  演 加布里埃尔·贝特曼 Gabriel Bateman
      乔什·杜哈明 Josh Duhamel
      梅根·福克斯 Megan Fox
      侯明昊 Minghao Hou
      艾萨克·王 Izaac Wang
      昆瑙·内亚 Kunal Nayyar
      詹妮特·蒙哥马利 Janet Montgomery
      茱莉亚·琼斯 Julia Jones
      布莱恩·考伦 Bryan Callen
      拉腊·格赖斯 Lara Grice
      格拉伦·布莱恩特·班克斯 Gralen Bryant Banks
      玛内特·帕特森 Marnette Patterson
      肖恩·博伊德 Sean Boyd
      梅森·古乔内 Mason Guccione
      莉娜·克拉克 Lena Clark
      林永健 Yongjian Lin
      托德·斯塔什维克 Todd Stashwick
      大卫·雷登 David Rayden
      董博文 Bowen Dong
      托尼·查普曼·斯蒂尔 Toney Chapman Steele
      小埃里克·贝尔 Eric Bell Jr.
      Dillon Ahlf
      Madison Horcher

◎标  签 喜剧 | 美国 | 2020 | 科幻 | 侯明昊 | 家庭 | 动物 | 英国

◎简  介

  该片由吉尔·约格尔(《我恨你的十件事》)自编自导,讲述12岁的科技天才Oliver某次做实验出了差错,他和他的狗Henry之间产生了心灵感应,双方变得更亲近,联手克服家庭和学校的困难。Andrew Lazar(《美国狙击手》《猫狗大战》)制片。
Video
ID : 1
Format : HEVC
Format/Info : High Efficiency Video Coding
Format profile : Main 10@L5@Main
HDR format : SMPTE ST 2094 App 4, Version 1, HDR10+ Profile B compatible
Codec ID : V_MPEGH/ISO/HEVC
Duration : 1 h 30 min
Bit rate : 14.8 Mb/s
Width : 3 840 pixels
Height : 2 080 pixels
Display aspect ratio : 1.85:1
Frame rate mode : Constant
Frame rate : 23.976 (24000/1001/189150) FPS
Color space : YUV
Chroma subsampling : 4:2:0
Bit depth : 10 bits
Bits/(Pixel*Frame) : 0.077
Stream size : 9.41 GiB (77%)
Default : Yes
Forced : No
Color range : Limited
Color primaries : BT.2020
Transfer characteristics : PQ
Matrix coefficients : BT.2020 non-constant
Mastering display color primaries : Display P3
Mastering display luminance : min: 0.0010 cd/m2, max: 1000 cd/m2
Maximum Content Light Level : 998 cd/m2
Maximum Frame-Average Light Level : 534 cd/m2

Audio #1
ID : 2
Format : DTS XLL
Format/Info : Digital Theater Systems
Commercial name : DTS-HD Master Audio
Codec ID : A_DTS
Duration : 1 h 30 min
Bit rate mode : Variable
Bit rate : 3 642 kb/s
Channel(s) : 6 channels
Channel layout : C L R Ls Rs LFE
Sampling rate : 48.0 kHz
Frame rate : 93.750 FPS (512 SPF)
Bit depth : 24 bits
Compression mode : Lossless
Stream size : 2.31 GiB (19%)
Title : DTS-HD MA 5.1
Language : English
Default : Yes
Forced : No

Audio #2
ID : 3
Format : E-AC-3
Format/Info : Enhanced AC-3
Commercial name : Dolby Digital Plus
Codec ID : A_EAC3
Duration : 1 h 30 min
Bit rate mode : Constant
Bit rate : 640 kb/s
Channel(s) : 6 channels
Channel layout : L R C LFE Ls Rs
Sampling rate : 48.0 kHz
Frame rate : 31.250 FPS (1536 SPF)
Compression mode : Lossy
Stream size : 416 MiB (3%)
Title : DDP 5.1
Language : English
Service kind : Complete Main
Default : No
Forced : No

Text #1
ID : 4
Format : UTF-8
Codec ID : S_TEXT/UTF8
Codec ID/Info : UTF-8 Plain Text
Duration : 1 h 26 min
Bit rate : 89 b/s
Count of elements : 1772
Stream size : 56.4 KiB (0%)
Title : English-SRT
Language : English
Default : Yes
Forced : No

Text #2
ID : 5
Format : PGS
Muxing mode : zlib
Codec ID : S_HDMV/PGS
Codec ID/Info : Picture based subtitle format used on BDs/HD-DVDs
Duration : 1 h 25 min
Bit rate : 53.1 kb/s
Count of elements : 3194
Stream size : 32.6 MiB (0%)
Title : English-PGS
Language : English
Default : No
Forced : No

Text #3
ID : 6
Format : PGS
Muxing mode : zlib
Codec ID : S_HDMV/PGS
Codec ID/Info : Picture based subtitle format used on BDs/HD-DVDs
Duration : 1 h 25 min
Bit rate : 48.2 kb/s
Count of elements : 2844
Stream size : 29.6 MiB (0%)
Title : Spanish-PGS
Language : Spanish
Default : No
Forced : No


69383427800519091185_thumb.jpg 78074258166185758473_thumb.jpg 82749908748400626729_thumb.jpg



游客,如果您要查看本帖隐藏内容请回复






.
回复

使用道具 举报

2

主题

1569

帖子

4243

积分

4K家园VIP

Rank: 9Rank: 9Rank: 9

积分
4243
发表于 2021-2-22 12:19:03 | 显示全部楼层
有空一起交流一下
回复 支持 反对

使用道具 举报

0

主题

2818

帖子

8716

积分

4K家园VIP

Rank: 9Rank: 9Rank: 9

积分
8716
发表于 2021-2-22 13:08:05 | 显示全部楼层
太好啦&萬分感謝版主的無私發佈分享%
回复 支持 反对

使用道具 举报

0

主题

324

帖子

1119

积分

注册会员

Rank: 2

积分
1119
发表于 2021-2-22 22:43:43 | 显示全部楼层
谢谢分享      
回复 支持 反对

使用道具 举报

1

主题

988

帖子

2984

积分

4K家园VIP

Rank: 9Rank: 9Rank: 9

积分
2984
发表于 6 天前 来自手机 | 显示全部楼层
非常好,顶一下
回复 支持 反对

使用道具 举报

2

主题

1218

帖子

3674

积分

4K家园VIP

Rank: 9Rank: 9Rank: 9

积分
3674
发表于 昨天 22:02 | 显示全部楼层
无论是不是沙发都得回复下
回复 支持 反对

使用道具 举报

您需要登录后才可以回帖 登录 | 立即注册

本版积分规则

精彩图文
Archiver|手机版|TAG|Sitemap|新帖|专题|联系我们:邮箱: 4kjia.com@gmail.com   

4k家园   ©2019