[4K电影] 《触不可及(美版)/(内嵌中字)》4K高清下载/大小13.82GB

[复制链接]

309

主题

319

帖子

3305

积分

4K家园VIP

Rank: 9Rank: 9Rank: 9

积分
3305
 楼主| 发表于 4 天前 | 显示全部楼层 |阅读模式
本帖最后由 最爱4K哟 于 2021-2-22 12:26 编辑

a8aeb761df7c9_副本_meitu_1.jpg

◎译  名 触不可及(美版)/Untouchable/上升/上行/活个精彩(台)/美版触不可及/闪亮人生(港)
◎片  名 The Upside
◎年  代 2017
◎产  地 美国
◎类  别 剧情 / 喜剧
◎语  言 英语
◎上映日期 2017-09-08(多伦多电影节) / 2019-01-11(美国) / 2019-11-22(中国大陆)
◎IMDb评分 6.9/10 from 42949 users
◎IMDb链接 https://www.imdb.com/title/tt1987680/
◎豆瓣评分 7.7/10 from 57160 users
◎豆瓣链接 https://movie.douban.com/subject/26061679/
◎片  长 126分钟
◎导  演 尼尔·博格 Neil Burger
◎编  剧 乔恩·哈特米尔 Jon Hartmere / 埃里克·托莱达诺 Eric Toledano / 奥利维埃·纳卡什 Olivier Nakache
◎主  演 凯文·哈特 Kevin Hart
      布莱恩·科兰斯顿 Bryan Cranston
      妮可·基德曼 Nicole Kidman
      阿雅·娜奥米·金 Aja Naomi King
      贾西·迪阿洛·温斯顿 Jahi Di'Allo Winston
      吉纳维芙·安吉森 Genevieve Angelson
      格什菲·法拉哈尼 Golshifteh Farahani
      泰特·多诺万 Tate Donovan
      朱丽安娜· 玛格丽丝 Julianna Margulies
      克里斯蒂娜·张 Christine Chang
      皮亚·梅切勒 Pia Mechler
      罗伯特·比齐克 Robert Bizik
      大卫·尼尔里姆 David Kneeream
      迈克尔·J·莱昂斯 Michael J. Lyons
      桃乐丝·麦卡锡 Doris McCarthy
      苏珊·萨瓦 Suzanne Savoy
      布莱恩·加拉格尔 Brian Gallagher
      泰隆·米切尔·亨德森 Tyrone Mitchell Henderson
      英德拉·A·托马斯 Indra A. Thomas
      简·摩尔 Jane Moore
      莱曼·陈 Lyman Chen
      柯克·凯利 Kirk Kelly


◎简  介

  电影根据真人真事改编,由凯?·哈特、布莱恩·科兰斯顿、妮可·基德曼主演。科兰斯顿和哈特分饰瘫痪的??富商Phillip和来?街头的??男?Dell,妮可·基德曼则饰演Phillip的高冷管家。Dell因为有犯罪前科找不到?作,阴差阳错来照顾Phillip,背景天差地别的两?经历了嘀笑皆?的?系列故事后成了令?动容的莫逆之交。

Video
ID : 1
Format : HEVC
Format/Info : High Efficiency Video Coding
Format profile : Main@L5@Main
Codec ID : V_MPEGH/ISO/HEVC
Duration : 2 h 5 min
Bit rate : 11.5 Mb/s
Width : 3 840 pixels
Height : 2 080 pixels
Display aspect ratio : 1.85:1
Frame rate mode : Constant
Frame rate : 23.976 (24000/1001) FPS
Standard : NTSC
Color space : YUV
Chroma subsampling : 4:2:0
Bit depth : 8 bits
Bits/(Pixel*Frame) : 0.060
Stream size : 10.1 GiB (73%)
Writing library : x265 2.9_elemental+1-9e0607aa5b6f:[Linux][GCC 4.8.5][64 bit] 8bit+10bit+12bit
Encoding settings : cpuid=1111039 / frame-threads=2 / wpp / no-pmode / no-pme / psnr / ssim / log-level=2 / csv / csv-log-level=2 / input-csp=1 / input-res=3840x2080 / interlace=0 / total-frames=0 / level-idc=50 / high-tier=1 / uhd-bd=0 / ref=5 / no-allow-non-conformance / no-repeat-headers / annexb / no-aud / no-hrd / info / hash=0 / no-temporal-layers / no-open-gop / min-keyint=61 / keyint=120 / gop-lookahead=0 / bframes=8 / b-adapt=2 / b-pyramid / bframe-bias=0 / rc-lookahead=120 / lookahead-slices=4 / scenecut=0 / radl=0 / no-intra-refresh / ctu=64 / min-cu-size=8 / rect / amp / max-tu-size=32 / tu-inter-depth=4 / tu-intra-depth=4 / limit-tu=4 / rdoq-level=2 / dynamic-rd=0.00 / no-ssim-rd / signhide / tskip / nr-intra=100 / nr-inter=600 / no-constrained-intra / strong-intra-smoothing / max-merge=3 / limit-refs=3 / limit-modes / me=3 / subme=3 / merange=57 / temporal-mvp / weightp / weightb / no-analyze-src-pics / deblock=0:0 / no-sao / no-sao-non-deblock / rd=4 / no-early-skip / no-rskip / no-fast-intra / tskip-fast / no-cu-lossless / b-intra / no-splitrd-skip / rdpenalty=0 / psy-rd=4.00 / psy-rdoq=10.00 / no-rd-refine / no-lossless / cbqpoffs=0 / crqpoffs=0 / rc=crf / crf=25.0 / qcomp=0.60 / qpstep=1 / stats-write=0 / stats-read=0 / vbv-maxrate=15000 / vbv-bufsize=20000 / vbv-init=0.9 / crf-max=0.0 / crf-min=0.0 / ipratio=1.10 / pbratio=1.00 / aq-mode=0 / aq-strength=1.50 / no-cutree / zone-count=0 / no-strict-cbr / qg-size=32 / rc-grain / qpmax=69 / qpmin=0 / const-vbv / sar=255 / sar-width / : / sar-height=481:480 / overscan=0 / videoformat=2 / range=0 / colorprim=1 / transfer=1 / colormatrix=1 / chromaloc=0 / display-window=0 / max-cll=0,0 / min-luma=0 / max-luma=255 / log2-max-poc-lsb=8 / vui-timing-info / vui-hrd-info / slices=1 / opt-qp-pps / no-opt-ref-list-length-pps / no-multi-pass-opt-rps / scenecut-bias=0.05 / no-opt-cu-delta-qp / no-aq-motion / no-hdr / no-hdr-opt / no-dhdr10-opt / no-idr-recovery-sei / analysis-reuse-level=5 / scale-factor=0 / refine-intra=0 / refine-inter=0 / refine-mv=0 / no-limit-sao / ctu-info=0 / no-lowpass-dct / refine-mv-type=0 / copy-pic=1 / max-ausize-factor=1.0 / no-dynamic-refine / no-single-sei
Default : Yes
Forced : No
Color range : Limited
Color primaries : BT.709
Transfer characteristics : BT.709
Matrix coefficients : BT.709

Audio #1
ID : 2
Format : DTS XLL
Format/Info : Digital Theater Systems
Commercial name : DTS-HD Master Audio
Codec ID : A_DTS
Duration : 2 h 5 min
Bit rate mode : Variable
Bit rate : 3 553 kb/s
Channel(s) : 6 channels
Channel layout : C L R Ls Rs LFE
Sampling rate : 48.0 kHz
Frame rate : 93.750 FPS (512 SPF)
Bit depth : 24 bits
Compression mode : Lossless
Delay relative to video : 1 s 505 ms
Stream size : 3.12 GiB (23%)
Title : DTS-HD MA 5.1
Language : English
Default : Yes
Forced : No

Audio #2
ID : 3
Format : E-AC-3
Format/Info : Enhanced AC-3
Commercial name : Dolby Digital Plus
Codec ID : A_EAC3
Duration : 2 h 5 min
Bit rate mode : Constant
Bit rate : 640 kb/s
Channel(s) : 6 channels
Channel layout : L R C LFE Ls Rs
Sampling rate : 48.0 kHz
Frame rate : 31.250 FPS (1536 SPF)
Compression mode : Lossy
Stream size : 576 MiB (4%)
Title : DDP 5.1
Language : English
Service kind : Complete Main
Default : No
Forced : No

Text #1
ID : 4
Format : UTF-8
Codec ID : S_TEXT/UTF8
Codec ID/Info : UTF-8 Plain Text
Duration : 1 h 59 min
Bit rate : 55 b/s
Count of elements : 1674
Stream size : 48.7 KiB (0%)
Title : English
Language : English
Default : Yes
Forced : No

Text #2
ID : 5
Format : UTF-8
Codec ID : S_TEXT/UTF8
Codec ID/Info : UTF-8 Plain Text
Duration : 2 h 2 min
Bit rate : 62 b/s
Count of elements : 1950
Stream size : 56.6 KiB (0%)
Title : English [SDH]
Language : English
Default : No
Forced : No

Text #3
ID : 6
Format : UTF-8
Codec ID : S_TEXT/UTF8
Codec ID/Info : UTF-8 Plain Text
Duration : 1 h 59 min
Bit rate : 58 b/s
Count of elements : 1712
Stream size : 51.4 KiB (0%)
Title : Malay
Language : Malay
Default : No
Forced : No

Text #4
ID : 7
Format : UTF-8
Codec ID : S_TEXT/UTF8
Codec ID/Info : UTF-8 Plain Text
Duration : 1 h 59 min
Bit rate : 45 b/s
Count of elements : 1705
Stream size : 40.0 KiB (0%)
Title : Danish
Language : Danish
Default : No
Forced : No

Text #5
ID : 8
Format : UTF-8
Codec ID : S_TEXT/UTF8
Codec ID/Info : UTF-8 Plain Text
Duration : 2 h 4 min
Bit rate : 40 b/s
Count of elements : 1199
Stream size : 36.7 KiB (0%)
Title : Dutch
Language : Dutch
Default : No
Forced : No

Text #6
ID : 9
Format : UTF-8
Codec ID : S_TEXT/UTF8
Codec ID/Info : UTF-8 Plain Text
Duration : 1 h 59 min
Bit rate : 47 b/s
Count of elements : 1278
Stream size : 41.2 KiB (0%)
Title : Norwegian (Bokmål)
Language : Norwegian Bokmal
Default : No
Forced : No

Text #7
ID : 10
Format : UTF-8
Codec ID : S_TEXT/UTF8
Codec ID/Info : UTF-8 Plain Text
Duration : 2 h 4 min
Bit rate : 47 b/s
Count of elements : 1420
Stream size : 43.2 KiB (0%)
Title : German
Language : German
Default : No
Forced : No

Text #8
ID : 11
Format : UTF-8
Codec ID : S_TEXT/UTF8
Codec ID/Info : UTF-8 Plain Text
Duration : 1 h 59 min
Bit rate : 48 b/s
Count of elements : 1587
Stream size : 42.7 KiB (0%)
Title : Finnish
Language : Finnish
Default : No
Forced : No

Text #9
ID : 12
Format : UTF-8
Codec ID : S_TEXT/UTF8
Codec ID/Info : UTF-8 Plain Text
Duration : 1 h 57 min
Bit rate : 49 b/s
Count of elements : 1430
Stream size : 42.3 KiB (0%)
Title : Italian
Language : Italian
Default : No
Forced : No

Text #10
ID : 13
Format : UTF-8
Codec ID : S_TEXT/UTF8
Codec ID/Info : UTF-8 Plain Text
Duration : 2 h 4 min
Bit rate : 46 b/s
Count of elements : 1528
Stream size : 42.9 KiB (0%)
Title : Brazilian Portuguese
Language : Portuguese
Default : No
Forced : No

Text #11
ID : 14
Format : UTF-8
Codec ID : S_TEXT/UTF8
Codec ID/Info : UTF-8 Plain Text
Duration : 1 h 59 min
Bit rate : 49 b/s
Count of elements : 1702
Stream size : 43.0 KiB (0%)
Title : Portuguese
Language : Portuguese
Default : No
Forced : No

Text #12
ID : 15
Format : UTF-8
Codec ID : S_TEXT/UTF8
Codec ID/Info : UTF-8 Plain Text
Duration : 2 h 4 min
Bit rate : 44 b/s
Count of elements : 1429
Stream size : 40.7 KiB (0%)
Title : Polish
Language : Polish
Default : No
Forced : No

Text #13
ID : 16
Format : UTF-8
Codec ID : S_TEXT/UTF8
Codec ID/Info : UTF-8 Plain Text
Duration : 1 h 59 min
Bit rate : 56 b/s
Count of elements : 1707
Stream size : 49.3 KiB (0%)
Title : Tagalog (Philippines)
Language : Tagalog
Default : No
Forced : No

Text #14
ID : 17
Format : UTF-8
Codec ID : S_TEXT/UTF8
Codec ID/Info : UTF-8 Plain Text
Duration : 1 h 59 min
Bit rate : 71 b/s
Count of elements : 1721
Stream size : 62.6 KiB (0%)
Title : Hebrew
Language : Hebrew
Default : No
Forced : No

Text #15
ID : 18
Format : UTF-8
Codec ID : S_TEXT/UTF8
Codec ID/Info : UTF-8 Plain Text
Duration : 2 h 4 min
Bit rate : 49 b/s
Count of elements : 1487
Stream size : 45.6 KiB (0%)
Title : French
Language : French
Default : No
Forced : No

Text #16
ID : 19
Format : UTF-8
Codec ID : S_TEXT/UTF8
Codec ID/Info : UTF-8 Plain Text
Duration : 1 h 59 min
Bit rate : 50 b/s
Count of elements : 1709
Stream size : 44.3 KiB (0%)
Title : Indonesian
Language : Indonesian
Default : No
Forced : No

Text #17
ID : 20
Format : UTF-8
Codec ID : S_TEXT/UTF8
Codec ID/Info : UTF-8 Plain Text
Duration : 1 h 56 min
Bit rate : 132 b/s
Count of elements : 1779
Stream size : 113 KiB (0%)
Title : Thai
Language : Thai
Default : No
Forced : No

Text #18
ID : 21
Format : UTF-8
Codec ID : S_TEXT/UTF8
Codec ID/Info : UTF-8 Plain Text
Duration : 2 h 4 min
Bit rate : 41 b/s
Count of elements : 1633
Stream size : 37.9 KiB (0%)
Title : Japanese
Language : Japanese
Default : No
Forced : No

Text #19
ID : 22
Format : UTF-8
Codec ID : S_TEXT/UTF8
Codec ID/Info : UTF-8 Plain Text
Duration : 2 h 4 min
Bit rate : 78 b/s
Count of elements : 1540
Stream size : 71.3 KiB (0%)
Title : Arabic
Language : Arabic
Default : No
Forced : No

Text #20
ID : 23
Format : UTF-8
Codec ID : S_TEXT/UTF8
Codec ID/Info : UTF-8 Plain Text
Duration : 2 h 4 min
Bit rate : 51 b/s
Count of elements : 1507
Stream size : 47.4 KiB (0%)
Title : Turkish
Language : Turkish
Default : No
Forced : No

Text #21
ID : 24
Format : UTF-8
Codec ID : S_TEXT/UTF8
Codec ID/Info : UTF-8 Plain Text
Duration : 2 h 4 min
Bit rate : 44 b/s
Count of elements : 1541
Stream size : 40.2 KiB (0%)
Title : Chinese (Simplified)
Language : Chinese
Default : No
Forced : No

Text #22
ID : 25
Format : UTF-8
Codec ID : S_TEXT/UTF8
Codec ID/Info : UTF-8 Plain Text
Duration : 1 h 59 min
Bit rate : 49 b/s
Count of elements : 1439
Stream size : 43.6 KiB (0%)
Title : Swedish
Language : Swedish
Default : No
Forced : No

Text #23
ID : 26
Format : UTF-8
Codec ID : S_TEXT/UTF8
Codec ID/Info : UTF-8 Plain Text
Duration : 2 h 4 min
Bit rate : 49 b/s
Count of elements : 1535
Stream size : 45.3 KiB (0%)
Title : Castilian
Language : Spanish
Default : No
Forced : No

Text #24
ID : 27
Format : UTF-8
Codec ID : S_TEXT/UTF8
Codec ID/Info : UTF-8 Plain Text
Duration : 2 h 4 min
Bit rate : 136 b/s
Count of elements : 1782
Stream size : 125 KiB (0%)
Title : Tamil
Language : Tamil
Default : No
Forced : No

Text #25
ID : 28
Format : UTF-8
Codec ID : S_TEXT/UTF8
Codec ID/Info : UTF-8 Plain Text
Duration : 2 h 4 min
Bit rate : 69 b/s
Count of elements : 1540
Stream size : 63.2 KiB (0%)
Title : Russian
Language : Russian
Default : No
Forced : No

Text #26
ID : 29
Format : UTF-8
Codec ID : S_TEXT/UTF8
Codec ID/Info : UTF-8 Plain Text
Duration : 2 h 4 min
Bit rate : 52 b/s
Count of elements : 1544
Stream size : 48.0 KiB (0%)
Title : Korean
Language : Korean
Default : No
Forced : No

Text #27
ID : 30
Format : UTF-8
Codec ID : S_TEXT/UTF8
Codec ID/Info : UTF-8 Plain Text
Duration : 2 h 4 min
Bit rate : 132 b/s
Count of elements : 1544
Stream size : 121 KiB (0%)
Title : Hindi
Language : Hindi
Default : No
Forced : No

Text #28
ID : 31
Format : UTF-8
Codec ID : S_TEXT/UTF8
Codec ID/Info : UTF-8 Plain Text
Duration : 2 h 4 min
Bit rate : 47 b/s
Count of elements : 1522
Stream size : 43.7 KiB (0%)
Title : Spanish
Language : Spanish
Default : No
Forced : No

Text #29
ID : 32
Format : UTF-8
Codec ID : S_TEXT/UTF8
Codec ID/Info : UTF-8 Plain Text
Duration : 2 h 4 min
Bit rate : 139 b/s
Count of elements : 1780
Stream size : 128 KiB (0%)
Title : Telugu
Language : Telugu
Default : No
Forced : No

Text #30
ID : 33
Format : UTF-8
Codec ID : S_TEXT/UTF8
Codec ID/Info : UTF-8 Plain Text
Duration : 2 h 4 min
Bit rate : 48 b/s
Count of elements : 1541
Stream size : 44.2 KiB (0%)
Title : Chinese (Traditional)
Language : Chinese
Default : No
Forced : No

10930588049510605183_thumb.jpg 23788060467048953481_thumb.jpg 81645403794787540716_thumb.jpg


游客,如果您要查看本帖隐藏内容请回复





.
回复

使用道具 举报

1

主题

1139

帖子

3431

积分

4K家园VIP

Rank: 9Rank: 9Rank: 9

积分
3431
发表于 4 天前 来自手机 | 显示全部楼层
我也顶起出售广告位
回复 支持 反对

使用道具 举报

0

主题

304

帖子

1047

积分

注册会员

Rank: 2

积分
1047
发表于 4 天前 | 显示全部楼层
楼主辛苦了!
回复 支持 反对

使用道具 举报

40

主题

1350

帖子

3852

积分

4K家园VIP

Rank: 9Rank: 9Rank: 9

积分
3852
发表于 昨天 17:31 | 显示全部楼层
一直在看
回复 支持 反对

使用道具 举报

您需要登录后才可以回帖 登录 | 立即注册

本版积分规则

精彩图文
Archiver|手机版|TAG|Sitemap|新帖|专题|联系我们:邮箱: 4kjia.com@gmail.com   

4k家园   ©2019