[4K电影] 《宠儿 / 争宠(港)》4K高清下载/大小22.81GB

[复制链接]

322

主题

332

帖子

3406

积分

4K家园VIP

Rank: 9Rank: 9Rank: 9

积分
3406
 楼主| 发表于 7 天前 | 显示全部楼层 |阅读模式
p2532012274.webp_副本.jpg

◎译  名 宠儿 / 争宠(港) / 宠姬 / 挚爱 / 真宠(台)
◎片  名 The Favourite
◎年  代 2018
◎产  地 爱尔兰 / 英国 / 美国
◎类  别 剧情 / 喜剧 / 同性 / 传记
◎语  言 英语
◎上映日期 2018-08-30(威尼斯电影节) / 2018-11-23(美国)
◎IMDb评分 7.8/10 from 64521 users
◎IMDb链接 http://www.imdb.com/title/tt5083738
◎豆瓣评分 7.4/10 from 20186 users
◎豆瓣链接 https://movie.douban.com/subject/26628282/
◎片  长 119分钟
◎导  演 欧格斯·兰斯莫斯 Yorgos Lanthimos
◎编  剧 德博拉·戴维斯 Deborah Davis / 托尼·麦克纳马拉 Tony McNamara
◎主  演 奥利维娅·科尔曼 Olivia Colman
      艾玛·斯通 Emma Stone
      蕾切尔·薇兹 Rachel Weisz
      尼古拉斯·霍尔特 Nicholas Hoult
      乔·阿尔文 Joe Alwyn
      马克·加蒂斯 Mark Gatiss
      蒂莫西·英纳斯 Timothy Innes
      珍妮·莱恩斯福德 Jenny Rainsford
      詹姆斯·史密斯 James Smith
      詹姆斯·梅尔维尔 James Melville
      杰克·维尔 Jack Veal

◎简  介  

  设定在18世纪早期的英格兰,讲述关于宫廷阴谋、激情、嫉妒和背叛的故事:大不列颠王国的安妮女王(科尔曼)与她的知己、顾问、秘密情人公爵夫人Sarah Churchill(薇姿)的关系因后者的一位年轻远方亲戚(斯通)到来而被搅得翻天地覆,各位女性为争夺女王的青睐和获得宫廷影响力而展开了激烈的斗争。

◎获奖情况  

  第91届奥斯卡金像奖(2019)
  最佳影片(提名)
  最佳导演(提名) 欧格斯·兰斯莫斯
  最佳女主角(提名) 奥利维娅·科尔曼
  最佳女配角(提名) 艾玛·斯通 / 蕾切尔·薇兹
  最佳原创剧本(提名) 托尼·麦克纳马拉 / 德博拉·戴维斯
  最佳摄影(提名) 罗比·瑞恩
  最佳剪辑(提名) 欧格斯·马夫罗萨里迪斯
  最佳艺术指导(提名) 菲奥娜·克隆比 / 爱丽丝·菲尔顿
  最佳服装设计(提名) 桑迪·鲍威尔

  第75届威尼斯电影节(2018)
  主竞赛单元 金狮奖 (提名) 欧格斯·兰斯莫斯
  银狮奖 评审团大奖 欧格斯·兰斯莫斯
  沃尔皮杯 最佳女演员 奥利维娅·科尔曼
  酷儿狮奖(提名) 欧格斯·兰斯莫斯

  第76届金球奖(2019)
  电影类 最佳音乐/喜剧片(提名)
  电影类 音乐/喜剧片最佳女主角 奥利维娅·科尔曼
  电影类 最佳女配角(提名) 艾玛·斯通 / 蕾切尔·薇兹
  电影类 最佳编剧(提名) 托尼·麦克纳马拉 / 德博拉·戴维斯

  第72届英国电影学院奖(2019)
  电影奖 最佳影片(提名)
  电影奖 最佳英国影片
  电影奖 最佳导演(提名) 欧格斯·兰斯莫斯
  电影奖 最佳女主角 奥利维娅·科尔曼
  电影奖 最佳女配角 蕾切尔·薇兹
  电影奖 最佳女配角(提名) 艾玛·斯通
  电影奖 最佳原创剧本 托尼·麦克纳马拉 / 德博拉·戴维斯
  电影奖 最佳摄影(提名) 罗比·瑞恩
  电影奖 最佳剪辑(提名) 欧格斯·马夫罗萨里迪斯
  电影奖 最佳化妆/发型 纳迪娅·斯泰西
  电影奖 最佳服装设计 桑迪·鲍威尔
  电影奖 最佳艺术指导 菲奥娜·克隆比 / 爱丽丝·菲尔顿

  第25届美国演员工会奖(2019)
  电影奖 最佳女主角(提名) 奥利维娅·科尔曼
  电影奖 最佳女配角(提名) 艾玛·斯通 / 蕾切尔·薇兹

  第30届美国制片人工会奖(2019)
  最佳电影制片人奖(提名)

  第33届美国摄影协会奖(2019)
  电影长片最佳摄影(提名) 罗比·瑞恩

  第69届美国剪辑工会奖(2019)
  音乐/喜剧片最佳剪辑 欧格斯·马夫罗萨里迪斯

  第23届美国艺术指导工会奖(2019)
  电影奖 最佳历史电影艺术指导 菲奥娜·克隆比

  第21届美国服装设计工会奖(2019)
  年代电影最佳服装设计 桑迪·鲍威尔

  第66届美国音效剪辑协会奖(2019)
  金卷轴奖 最佳电影音效剪辑(提名)
  金卷轴奖 最佳电影对白剪辑(提名)

  第24届美国评论家选择电影奖(2019)
  最佳影片(提名)
  最佳导演(提名) 欧格斯·兰斯莫斯
  最佳女主角(提名) 奥利维娅·科尔曼
  最佳女配角(提名) 艾玛·斯通 / 蕾切尔·薇兹
  最佳群戏
  最佳喜剧片(提名)
  喜剧片最佳女主角 奥利维娅·科尔曼
  最佳原创剧本(提名) 托尼·麦克纳马拉 / 德博拉·戴维斯
  最佳摄影(提名)
  最佳剪辑(提名)
  最佳美术指导(提名)
  最佳服装设计(提名)
  最佳发型化妆(提名)

  第34届美国独立精神奖(2019)
  最佳国际电影(提名)

  第21届英国独立电影奖(2018)
  最佳英国独立电影
  最佳导演 欧格斯·兰斯莫斯
  最佳编剧 托尼·麦克纳马拉 / 德博拉·戴维斯
  最佳女主角 奥利维娅·科尔曼
  最佳女配角 蕾切尔·薇兹
  最佳女配角(提名) 艾玛·斯通
  最佳选角
  最佳摄影
  最佳服装设计
  最佳剪辑(提名)
  最佳化妆与发型设计
  最佳艺术指导
  最佳音效(提名)

  第28届哥谭独立电影奖(2018)
  最佳影片(提名)

  最佳群戏 艾玛·斯通 / 奥利维娅·科尔曼 / 蕾切尔·薇兹
  最佳剧本(提名)

  第19届美国电影学会奖(2018)
  年度佳片

  第23届金卫星奖(2019)
  电影部门 最佳喜剧/音乐片(提名)
  电影部门 最佳导演(提名) 欧格斯·兰斯莫斯
  电影部门 喜剧/音乐片最佳女主角 奥利维娅·科尔曼
  电影部门 最佳女配角(提名) 艾玛·斯通 / 蕾切尔·薇兹
  电影部门 最佳原创剧本(提名) 托尼·麦克纳马拉 / 德博拉·戴维斯
  电影部门 最佳摄影(提名)
  电影部门 最佳美术指导(提名)
  电影部门 最佳服装设计
  电影最佳群像

  第22届好莱坞电影奖(2018)
  年度女配角 蕾切尔·薇兹
  年度服装设计 桑迪·鲍威尔

  第53届美国国家影评人协会奖(2019)
  最佳女主角 奥利维娅·科尔曼
  最佳女配角(提名) 艾玛·斯通
  最佳剧本(提名) 托尼·麦克纳马拉 / 德博拉·戴维斯

  第17届华盛顿影评人协会奖(2018)
  最佳影片(提名)
  最佳导演(提名) 欧格斯·兰斯莫斯
  最佳女主角(提名) 奥利维娅·科尔曼
  最佳女配角(提名) 艾玛·斯通 / 蕾切尔·薇兹
  最佳原创剧本 托尼·麦克纳马拉 / 德博拉·戴维斯
  最佳群戏
  最佳摄影(提名)
  最佳剪辑(提名)
  最佳艺术指导(提名)

  第39届伦敦影评人协会奖(2019)
  年度电影(提名)
  年度导演(提名) 欧格斯·兰斯莫斯
  年度英国/爱尔兰电影
  年度编剧 托尼·麦克纳马拉 / 德博拉·戴维斯
  年度女主角 奥利维娅·科尔曼
  年度女配角 蕾切尔·薇兹
  年度英国/爱尔兰女演员(提名) 奥利维娅·科尔曼 / 蕾切尔·薇兹
  年度突破英国/爱尔兰电影人(提名) 德博拉·戴维斯
  技术成就奖(提名) 菲奥娜·克隆比

  第39届波士顿影评人协会奖(2018)
  最佳影片(提名)
  最佳导演(提名) 欧格斯·兰斯莫斯
  最佳群像表演(提名)

  第44届洛杉矶影评人协会奖(2018)
  最佳女主角 奥利维娅·科尔曼
  最佳剧本(提名) 托尼·麦克纳马拉 / 德博拉·戴维斯
  最佳艺术指导(提名)

  第31届芝加哥影评人协会奖(2018)
  最佳影片(提名)
  最佳导演(提名) 欧格斯·兰斯莫斯
  最佳女配角 奥利维娅·科尔曼
  最佳女配角(提名) 蕾切尔·薇兹
  最佳原创剧本(提名) 托尼·麦克纳马拉 / 德博拉·戴维斯
  最佳摄影(提名) 罗比·瑞恩
  最佳艺术指导

  第17届旧金山影评人协会奖(2018)
  最佳影片(提名)
  最佳导演(提名) 欧格斯·兰斯莫斯
  最佳女主角(提名) 奥利维娅·科尔曼
  最佳女配角(提名) 艾玛·斯通 / 蕾切尔·薇兹
  最佳原创剧本(提名) 托尼·麦克纳马拉 / 德博拉·戴维斯
  最佳摄影(提名)
  最佳艺术指导(提名)
  最佳剪辑(提名)

  第18届温哥华影评人协会奖(2019)
  最佳影片(提名)
  最佳导演(提名) 欧格斯·兰斯莫斯
  最佳女主角 奥利维娅·科尔曼
  最佳女配角 蕾切尔·薇兹
  最佳女配角(提名) 艾玛·斯通
  最佳剧本(提名) 托尼·麦克纳马拉 / 德博拉·戴维斯

  第52届堪萨斯影评人协会奖(2018)
  最佳影片
  最佳女主角 奥利维娅·科尔曼
  最佳原创剧本

  第18届凤凰城影评人协会奖(2018)
  最佳女配角 艾玛·斯通
  最佳服装设计
  最佳艺术指导
  十佳影片

  第3届亚特兰大影评人协会奖(2018)
  十佳影片
  最佳女主角 奥利维娅·科尔曼
  最佳女配角 艾玛·斯通
  最佳编剧 托尼·麦克纳马拉 / 德博拉·戴维斯
  最佳群戏

  第22届美国在线影评人协会奖(2019)
  最佳影片(提名)
  最佳导演(提名) 欧格斯·兰斯莫斯
  最佳女主角(提名) 奥利维娅·科尔曼
  最佳女配角(提名) 艾玛·斯通 / 蕾切尔·薇兹
  最佳原创剧本(提名) 托尼·麦克纳马拉 / 德博拉·戴维斯
  最佳剪辑(提名)
  最佳摄影(提名)


Video
ID : 1
Format : HEVC
Format/Info : High Efficiency Video Coding
Format profile : Main@L5.1@Main
Codec ID : V_MPEGH/ISO/HEVC
Duration : 1 h 59 min
Bit rate : 23.3 Mb/s
Width : 3 840 pixels
Height : 2 160 pixels
Display aspect ratio : 16:9
Frame rate mode : Constant
Frame rate : 23.976 (24000/1001) FPS
Color space : YUV
Chroma subsampling : 4:2:0
Bit depth : 8 bits
Bits/(Pixel*Frame) : 0.117
Stream size : 19.4 GiB (85%)
Default : Yes
Forced : No
Color range : Limited
Color primaries : BT.709
Transfer characteristics : BT.709
Matrix coefficients : BT.709

Audio #1
ID : 2
Format : DTS XLL
Format/Info : Digital Theater Systems
Commercial name : DTS-HD Master Audio
Codec ID : A_DTS
Duration : 1 h 59 min
Bit rate mode : Variable
Bit rate : 3 352 kb/s
Channel(s) : 6 channels
Channel layout : C L R Ls Rs LFE
Sampling rate : 48.0 kHz
Frame rate : 93.750 FPS (512 SPF)
Bit depth : 24 bits
Compression mode : Lossless
Delay relative to video : 1 s 1 ms
Stream size : 2.80 GiB (12%)
Title : DTS-HD MA 5.1
Language : English
Default : Yes
Forced : No

Audio #2
ID : 3
Format : AC-3
Format/Info : Audio Coding 3
Commercial name : Dolby Digital
Codec ID : A_AC3
Duration : 1 h 59 min
Bit rate mode : Constant
Bit rate : 640 kb/s
Channel(s) : 6 channels
Channel layout : L R C LFE Ls Rs
Sampling rate : 48.0 kHz
Frame rate : 31.250 FPS (1536 SPF)
Compression mode : Lossy
Stream size : 547 MiB (2%)
Title : DD 5.1
Language : English
Service kind : Complete Main
Default : No
Forced : No

Text #1
ID : 4
Format : UTF-8
Codec ID : S_TEXT/UTF8
Codec ID/Info : UTF-8 Plain Text
Duration : 1 h 49 min
Bit rate : 52 b/s
Count of elements : 1341
Stream size : 41.8 KiB (0%)
Title : English-SRT
Language : English
Default : Yes
Forced : No

Text #2
ID : 5
Format : PGS
Muxing mode : zlib
Codec ID : S_HDMV/PGS
Codec ID/Info : Picture based subtitle format used on BDs/HD-DVDs
Duration : 1 h 57 min
Bit rate : 36.0 kb/s
Count of elements : 2632
Stream size : 30.3 MiB (0%)
Title : French-PGS
Language : French
Default : No
Forced : No

Text #3
ID : 6
Format : PGS
Muxing mode : zlib
Codec ID : S_HDMV/PGS
Codec ID/Info : Picture based subtitle format used on BDs/HD-DVDs
Duration : 1 h 57 min
Bit rate : 33.5 kb/s
Count of elements : 2630
Stream size : 28.2 MiB (0%)
Title : Spanish-PGS
Language : Spanish
Default : No
Forced : No


24273693999681973117_thumb.jpg 41730229086345018540_thumb.jpg 79269056722575893380_thumb.jpg

游客,如果您要查看本帖隐藏内容请回复





.
回复

使用道具 举报

2

主题

1178

帖子

3552

积分

4K家园VIP

Rank: 9Rank: 9Rank: 9

积分
3552
发表于 7 天前 | 显示全部楼层
一直在看
回复 支持 反对

使用道具 举报

0

主题

9

帖子

62

积分

新手上路

Rank: 1

积分
62
发表于 7 天前 | 显示全部楼层
感谢分享,谢谢。。。。。。。。。。。。。。。。。。
回复 支持 反对

使用道具 举报

0

主题

319

帖子

1101

积分

注册会员

Rank: 2

积分
1101
发表于 6 天前 | 显示全部楼层
谢谢楼主分享
回复 支持 反对

使用道具 举报

0

主题

2698

帖子

8533

积分

4K家园VIP

Rank: 9Rank: 9Rank: 9

积分
8533
发表于 4 天前 | 显示全部楼层
太好啦&萬分感謝版主的無私發佈分享%
回复 支持 反对

使用道具 举报

0

主题

319

帖子

1101

积分

注册会员

Rank: 2

积分
1101
发表于 4 天前 | 显示全部楼层
感谢楼主的分享
回复 支持 反对

使用道具 举报

194

主题

1413

帖子

3839

积分

4K家园VIP

Rank: 9Rank: 9Rank: 9

积分
3839
发表于 前天 23:30 来自手机 | 显示全部楼层
楼猪V5啊
回复 支持 反对

使用道具 举报

您需要登录后才可以回帖 登录 | 立即注册

本版积分规则

精彩图文
Archiver|手机版|TAG|Sitemap|新帖|专题|联系我们:邮箱: 4kjia.com@gmail.com   

4k家园   ©2019