[4K UHD 蓝光原盘] 《金钱陷阱/钱之坑(俄版)》4K蓝光REMUX 版本下载

[复制链接]

803

主题

827

帖子

1万

积分

超级版主

Rank: 8Rank: 8

积分
10704
 楼主| 发表于 2021-3-25 21:07:09 | 显示全部楼层 |阅读模式
本帖最后由 没完没了 于 2021-3-23 12:35 编辑

QQ图片20210226191804_meitu_3.jpg

◎译  名 金钱陷阱/古怪屋/钱之坑
◎片  名 The Money Pit
◎年  代 1986
◎产  地 美国
◎类  别 喜剧 / 音乐
◎语  言 英语
◎上映日期 1986-03-26
◎IMDb评分 6.4/10 from 51118 users
◎IMDb链接 https://www.imdb.com/title/tt0091541/
◎豆瓣评分 7.5/10 from 872 users
◎豆瓣链接 https://movie.douban.com/subject/1306683/
◎片  长 91 分钟
◎导  演 理查德·本杰明 Richard Benjamin
◎编  剧 大卫·吉勒 David Giler
◎主  演 汤姆·汉克斯 Tom Hanks
      谢莉·朗 Shelley Long
      亚历山大·乔杜诺夫 Alexander Godunov
      玛伦·斯塔普莱顿 Maureen Stapleton
      杰克·斯坦菲尔德 Jake Steinfeld
      Vincent Russo
      内斯特·塞拉诺 Nestor Serrano
      雅科夫·斯米诺夫 Yakov Smirnoff
      Louise Robey
      约翰·范德雷伦 John Van Dreelen
      迈克特里蒙特 Mike Tremont
      Douglass Watson
      Leslie West
      玛丽·路易丝·威尔逊 Mary Louise Wilson
      Tetchie Agbayani
      迈克·斯塔尔 Mike Starr
      Michael Russo
      乔什·莫斯特尔 Josh Mostel
      维德尔·皮尔斯 Wendell Pierce
      Joe Ponazecki
      布赖恩·巴克尔 Brian Backer
      迈克尔·杰特 Michael Jeter
      乔·曼特纳 Joe Mantegna
      阿非莫·奥米拉 Afemo Omilami
      弗兰基·费森 Frankie Faison
      菲利普·博斯科 Philip Bosco
      卡明·卡里迪 Carmine Caridi
      马修·考尔斯 Matthew Cowles
      Frank Maraden
      Billy Lombardo
      Melissa Ann Green
      米娅·狄龙 Mia Dillon
      Ron Foster
      Lucille Dobrin
      J. Cynthia Brooks
      Susan Browning


◎简  介

  律师华特(汤姆·汉克斯 Tom Hanks 饰)邂逅了美丽的古典乐手安娜(谢莉·朗 Shelley Long 饰),情投意合的两人很快就走到了一起。刚开始,他们住在安娜的前夫麦克斯(亚历山大·乔杜诺夫 Alexander Godunov 饰)的房子里,但归来的麦克斯将两人赶了出去,他们该到哪里去找一个可以遮风避雨的容身之处呢?
  幸运的是,两人以超低的价格从一个老妇的手中买到了一幢富丽堂皇的别墅,可他们满心欢喜的住进去没多久,别墅里就开始出现了各种各样的问题。原来,这桩别墅系“豆腐渣工程”,更糟的是,根本没有施工队愿意接手这个烫手山芋。为了修缮房屋,华特和安娜投在这栋房子里的钱越来越多,而两人的感情却渐渐产生了裂痕。


Media Info
General
Complete name :金钱陷阱(63.41GB)Money Pit, The.1986.BDRemux.AI_UPSCALE_3840x2160_alq-8_SDR_Finalalang.mkv
Format : Matroska
Format version : Version 4
File size : 63.4 GiB
Duration : 1 h 30 min
Overall bit rate mode : Variable
Overall bit rate : 99.9 Mb/s
Encoded date : UTC 2021-01-10 21:52:15
Writing application : mkvmerge v52.0.0 ('Secret For The Mad') 64-bit
Writing library : libebml v1.4.1 + libmatroska v1.6.2

Video
ID : 1
Format : AVC
Format/Info : Advanced Video Codec
Format profile : Baseline@L5.1
Format settings : 1 Ref Frames
Format settings, CABAC : No
Format settings, Reference fra : 1 frame
Format settings, GOP : M=1, N=12
Codec ID : V_MPEG4/ISO/AVC
Duration : 1 h 30 min
Bit rate : 94.9 Mb/s
Width : 3 840 pixels
Height : 2 160 pixels
Display aspect ratio : 16:9
Frame rate mode : Constant
Frame rate : 23.976 (24000/1001) FPS
Color space : YUV
Chroma subsampling : 4:2:0
Bit depth : 8 bits
Scan type : Progressive
Bits/(Pixel*Frame) : 0.477
Stream size : 60.2 GiB (95%)
Writing library : x264 core 157 r2970 5493be8
Encoding settings : cabac=0 / ref=1 / deblock=0:0:0 / analyse=0:0 / me=dia / subme=0 / psy=1 / psy_rd=1.00:0.00 / mixed_ref=0 / me_range=16 / chroma_me=1 / trellis=0 / 8x8dct=0 / cqm=0 / deadzone=21,11 / fast_pskip=1 / chroma_qp_offset=0 / threads=8 / lookahead_threads=1 / sliced_threads=0 / nr=0 / decimate=1 / interlaced=0 / bluray_compat=0 / constrained_intra=0 / bframes=0 / weightp=0 / keyint=12 / keyint_min=1 / scenecut=0 / intra_refresh=0 / rc=crf / mbtree=0 / crf=15.0 / qcomp=0.60 / qpmin=0 / qpmax=69 / qpstep=4 / ip_ratio=1.40 / aq=0
Default : Yes
Forced : No
Color range : Limited
Color primaries : BT.709
Transfer characteristics : BT.709
Matrix coefficients : BT.709

Audio #1
ID : 2
Format : AC-3
Format/Info : Audio Coding 3
Commercial name : Dolby Digital
Codec ID : A_AC3
Duration : 1 h 30 min
Bit rate mode : Constant
Bit rate : 192 kb/s
Channel(s) : 2 channels
Channel layout : L R
Sampling rate : 48.0 kHz
Frame rate : 31.250 FPS (1536 SPF)
Compression mode : Lossy
Stream size : 125 MiB (0%)
Title : DVO (ОРТ)
Language : Russian
Service kind : Complete Main
Default : Yes
Forced : Yes

Audio #2
ID : 3
Format : AC-3
Format/Info : Audio Coding 3
Commercial name : Dolby Digital
Codec ID : A_AC3
Duration : 1 h 30 min
Bit rate mode : Constant
Bit rate : 192 kb/s
Channel(s) : 2 channels
Channel layout : L R
Sampling rate : 48.0 kHz
Frame rate : 31.250 FPS (1536 SPF)
Compression mode : Lossy
Stream size : 125 MiB (0%)
Title : DVO (НТВ+)
Language : Russian
Service kind : Complete Main
Default : No
Forced : No

Audio #3
ID : 4
Format : AC-3
Format/Info : Audio Coding 3
Commercial name : Dolby Digital
Codec ID : A_AC3
Duration : 1 h 30 min
Bit rate mode : Constant
Bit rate : 192 kb/s
Channel(s) : 2 channels
Channel layout : L R
Sampling rate : 48.0 kHz
Frame rate : 31.250 FPS (1536 SPF)
Compression mode : Lossy
Stream size : 125 MiB (0%)
Title : MVO (Премьер Мультимедиа)
Language : Russian
Service kind : Complete Main
Default : No
Forced : No

Audio #4
ID : 5
Format : AC-3
Format/Info : Audio Coding 3
Commercial name : Dolby Digital
Codec ID : A_AC3
Duration : 1 h 30 min
Bit rate mode : Constant
Bit rate : 192 kb/s
Channel(s) : 2 channels
Channel layout : L R
Sampling rate : 48.0 kHz
Frame rate : 31.250 FPS (1536 SPF)
Compression mode : Lossy
Stream size : 125 MiB (0%)
Title : DVO (HTB)
Language : Russian
Service kind : Complete Main
Default : No
Forced : No

Audio #5
ID : 6
Format : DTS
Format/Info : Digital Theater Systems
Codec ID : A_DTS
Duration : 1 h 30 min
Bit rate mode : Constant
Bit rate : 1 509 kb/s
Channel(s) : 6 channels
Channel layout : C L R Ls Rs LFE
Sampling rate : 48.0 kHz
Frame rate : 93.750 FPS (512 SPF)
Bit depth : 16 bits
Compression mode : Lossy
Stream size : 981 MiB (2%)
Title : AVO (Юрий Живов)
Language : Russian
Default : No
Forced : No

Audio #6
ID : 7
Format : AC-3
Format/Info : Audio Coding 3
Commercial name : Dolby Digital
Codec ID : A_AC3
Duration : 1 h 30 min
Bit rate mode : Constant
Bit rate : 192 kb/s
Channel(s) : 2 channels
Channel layout : L R
Sampling rate : 48.0 kHz
Frame rate : 31.250 FPS (1536 SPF)
Compression mode : Lossy
Stream size : 125 MiB (0%)
Title : AVO (Андрей Гаврилов)
Language : Russian
Service kind : Complete Main
Default : No
Forced : No

Audio #7
ID : 8
Format : AC-3
Format/Info : Audio Coding 3
Commercial name : Dolby Digital
Codec ID : A_AC3
Duration : 1 h 30 min
Bit rate mode : Constant
Bit rate : 192 kb/s
Channel(s) : 2 channels
Channel layout : L R
Sampling rate : 48.0 kHz
Frame rate : 31.250 FPS (1536 SPF)
Compression mode : Lossy
Stream size : 125 MiB (0%)
Title : AVO (Василий Горчаков)
Language : Russian
Service kind : Complete Main
Default : No
Forced : No

Audio #8
ID : 9
Format : AC-3
Format/Info : Audio Coding 3
Commercial name : Dolby Digital
Codec ID : A_AC3
Duration : 1 h 30 min
Bit rate mode : Constant
Bit rate : 192 kb/s
Channel(s) : 2 channels
Channel layout : L R
Sampling rate : 48.0 kHz
Frame rate : 31.250 FPS (1536 SPF)
Compression mode : Lossy
Stream size : 125 MiB (0%)
Title : AVO (Александр Кашкин)
Language : Russian
Service kind : Complete Main
Default : No
Forced : No

Audio #9
ID : 10
Format : AC-3
Format/Info : Audio Coding 3
Commercial name : Dolby Digital
Codec ID : A_AC3
Duration : 1 h 30 min
Bit rate mode : Constant
Bit rate : 192 kb/s
Channel(s) : 2 channels
Channel layout : L R
Sampling rate : 48.0 kHz
Frame rate : 31.250 FPS (1536 SPF)
Compression mode : Lossy
Stream size : 125 MiB (0%)
Title : VO (одноголосый любительский)
Language : Russian
Service kind : Complete Main
Default : No
Forced : No

Audio #10
ID : 11
Format : DTS XLL
Format/Info : Digital Theater Systems
Commercial name : DTS-HD Master Audio
Codec ID : A_DTS
Duration : 1 h 30 min
Bit rate mode : Variable
Bit rate : 1 936 kb/s
Channel(s) : 6 channels
Channel layout : C L R Ls Rs LFE
Sampling rate : 48.0 kHz
Frame rate : 93.750 FPS (512 SPF)
Bit depth : 16 bits
Compression mode : Lossless
Stream size : 1.23 GiB (2%)
Language : English
Default : No
Forced : No

Text #1
ID : 12
Format : UTF-8
Codec ID : S_TEXT/UTF8
Codec ID/Info : UTF-8 Plain Text
Duration : 1 h 26 min
Bit rate : 110 b/s
Count of elements : 1156
Stream size : 69.6 KiB (0%)
Title : Russian
Language : Russian
Default : No
Forced : No

Text #2
ID : 13
Format : UTF-8
Codec ID : S_TEXT/UTF8
Codec ID/Info : UTF-8 Plain Text
Duration : 1 h 26 min
Bit rate : 69 b/s
Count of elements : 1120
Stream size : 43.8 KiB (0%)
Title : English
Language : English
Default : No
Forced : No

Text #3
ID : 14
Format : UTF-8
Codec ID : S_TEXT/UTF8
Codec ID/Info : UTF-8 Plain Text
Duration : 1 h 28 min
Bit rate : 93 b/s
Count of elements : 952
Stream size : 60.5 KiB (0%)
Title : Arabic
Language : Arabic
Default : No
Forced : No

Text #4
ID : 15
Format : UTF-8
Codec ID : S_TEXT/UTF8
Codec ID/Info : UTF-8 Plain Text
Duration : 1 h 26 min
Bit rate : 98 b/s
Count of elements : 1153
Stream size : 62.3 KiB (0%)
Title : Bulgarian
Language : Bulgarian
Default : No
Forced : No

Text #5
ID : 16
Format : UTF-8
Codec ID : S_TEXT/UTF8
Codec ID/Info : UTF-8 Plain Text
Duration : 1 h 26 min
Bit rate : 111 b/s
Count of elements : 1147
Stream size : 70.7 KiB (0%)
Title : Greek
Language : Greek
Default : No
Forced : No

Text #6
ID : 17
Format : UTF-8
Codec ID : S_TEXT/UTF8
Codec ID/Info : UTF-8 Plain Text
Duration : 1 h 26 min
Bit rate : 67 b/s
Count of elements : 1129
Stream size : 42.5 KiB (0%)
Title : Spanish
Language : Spanish
Default : No
Forced : No

Text #7
ID : 18
Format : UTF-8
Codec ID : S_TEXT/UTF8
Codec ID/Info : UTF-8 Plain Text
Duration : 1 h 26 min
Bit rate : 68 b/s
Count of elements : 1154
Stream size : 43.2 KiB (0%)
Title : Romanian
Language : Romanian
Default : No
Forced : No

Text #8
ID : 19
Format : UTF-8
Codec ID : S_TEXT/UTF8
Codec ID/Info : UTF-8 Plain Text
Duration : 1 h 25 min
Bit rate : 60 b/s
Count of elements : 1150
Stream size : 38.0 KiB (0%)
Title : Swedish
Language : Swedish
Default : No
Forced : No

Menu
00:00:00.000 : :Chapter 01
00:03:21.075 : :Chapter 02
00:06:47.365 : :Chapter 03
00:14:37.459 : :Chapter 04
00:20:19.092 : :Chapter 05
00:28:02.180 : :Chapter 06
00:34:12.967 : :Chapter 07
00:41:20.394 : :Chapter 08
00:45:50.831 : :Chapter 09
00:50:51.757 : :Chapter 10
00:56:39.479 : :Chapter 11
01:03:26.719 : :Chapter 12
01:07:30.713 : :Chapter 13
01:13:54.263 : :Chapter 14
01:21:30.594 : :Chapter 15
01:26:35.940 : :Chapter 16



首发4K蓝光REMUX俄版资源,无视迅雷下载软件,推荐使用qBittorrent等下载软件,有条件的推荐115更好的下载软件!
经典影片,有能力字幕爱好的发烧友,请联系本楼主

金钱陷阱(42.80GB)Money Pit, The.1986.BDRemux.AI_UPSCALE_3840x2160_alq-11_SDR_Finalalang
游客,如果您要查看本帖隐藏内容请回复

金钱陷阱(63.41GB)Money Pit, The.1986.BDRemux.AI_UPSCALE_3840x2160_alq-8_SDR_Finalalang
游客,如果您要查看本帖隐藏内容请回复


心,爱心.gif


回复

使用道具 举报

48

主题

1356

帖子

3896

积分

4K家园VIP

Rank: 9Rank: 9Rank: 9

积分
3896
发表于 2021-3-25 21:07:15 | 显示全部楼层
4K家园资源最近貌似越来越多了
回复 支持 反对

使用道具 举报

0

主题

3503

帖子

9830

积分

4K家园VIP

Rank: 9Rank: 9Rank: 9

积分
9830
发表于 2021-3-25 22:01:23 | 显示全部楼层
太好啦&萬分感謝版主的無私發佈分享%
回复 支持 反对

使用道具 举报

3

主题

1051

帖子

3171

积分

4K家园VIP

Rank: 9Rank: 9Rank: 9

积分
3171
发表于 2021-3-26 17:47:13 来自手机 | 显示全部楼层
前排顶起
回复 支持 反对

使用道具 举报

2

主题

1258

帖子

3624

积分

中级会员

Rank: 4

积分
3624
发表于 2021-3-28 07:18:13 | 显示全部楼层
4K家园不错,希望这种资源越多越好
回复 支持 反对

使用道具 举报

40

主题

1352

帖子

3872

积分

4K家园VIP

Rank: 9Rank: 9Rank: 9

积分
3872
发表于 2021-3-28 15:28:45 | 显示全部楼层
这个资源我记得是一套的,楼主还有没有
回复 支持 反对

使用道具 举报

48

主题

1389

帖子

3997

积分

4K家园VIP

Rank: 9Rank: 9Rank: 9

积分
3997
发表于 2021-3-29 18:37:00 | 显示全部楼层
这个资源我记得是一套的,楼主还有没有
回复 支持 反对

使用道具 举报

您需要登录后才可以回帖 登录 | 立即注册

本版积分规则

精彩图文
Archiver|手机版|TAG|Sitemap|新帖|专题|联系我们:邮箱: 4kjia.com@gmail.com   

4k家园   ©2019