[4K UHD 蓝光原盘] 《超时空接触/接触未来(俄版)》4K蓝光REMUX 版本下载

[复制链接]

803

主题

827

帖子

1万

积分

超级版主

Rank: 8Rank: 8

积分
10704
 楼主| 发表于 2021-3-11 10:17:48 | 显示全部楼层 |阅读模式
超时空接触_海报.jpg

译  名 超时空接触/接触/接触未来
片  名 Contact
年  代 1997
国  家 美国
类  别 剧情/科幻
语  言 英语/俄语
上映日期 1997-07-11/
片  长 150 分钟
导  演 罗伯特·泽米吉斯 Robert Zemeckis
主  演 朱迪·福斯特 Jodie Foster
      马修·麦康纳 Matthew McConaughey
      吉娜·马隆 Jena Malone
      大卫·摩斯 David Morse
      威廉·菲德内尔 William Fichtner
      杰弗里·布莱克 Geoffrey Blake
      安吉拉·贝塞特 Angela Bassett
      约翰·赫特 John Hurt
      詹姆斯·伍兹 James Woods

简  介

  艾莉·爱罗维(茱迪·福斯特饰)自幼就对无线电通讯情有独钟。长大后,她成为一名天文学家,其项目内容为接收外太空信号。她希望能借此找到宇宙其他文明的存在。天才的理想得到的却是投资者的冷眼相看,幸好有神秘人帮助艾莉继续工作。
  一次偶然的机会,艾莉收到了来自织女星的频率信号,似乎证明了艾莉一直以来的工作是正确的。但这带来的不是她个人事业的成功,而是政治、社会、宗教、国家各个角度的矛盾与讨论。深陷这一切暴风中心的艾莉,更要面对与神职人士帕尔默·乔丝(马修·麦康纳饰)的感情纠葛。
  个人与世界,真相与现实,艾莉面临着远远超越学术范围的挑战。

获奖情况

  第70届奥斯卡金像奖  (1998)
  最佳音响(提名) 兰迪·汤姆 / 威廉·B·卡普兰 / 丹尼斯·S·桑兹 / 汤姆·约翰逊



General
Complete name :超时空接触(82.77GB)Contact.1997.BDRemux.AI_UPSCALE_3840x2160_alq-8_SDR_Finalalang.mkv
Format : Matroska
Format version : Version 4
File size : 82.8 GiB
Duration : 2 h 29 min
Overall bit rate mode : Variable
Overall bit rate : 79.1 Mb/s
Movie name : Contact -= Andrew Placid =-
Encoded date : UTC 2020-12-08 21:28:23
Writing application : mkvmerge v51.0.0 ('I Wish') 64-bit
Writing library : libebml v1.4.0 + libmatroska v1.6.2

Video
ID : 1
Format : AVC
Format/Info : Advanced Video Codec
Format profile : Baseline@L5.1
Format settings : 1 Ref Frames
Format settings, CABAC : No
Format settings, Reference fra : 1 frame
Format settings, GOP : M=1, N=12
Codec ID : V_MPEG4/ISO/AVC
Duration : 2 h 29 min
Bit rate : 77.0 Mb/s
Width : 3 840 pixels
Height : 2 160 pixels
Display aspect ratio : 16:9
Frame rate mode : Constant
Frame rate : 23.976 (24000/1001) FPS
Color space : YUV
Chroma subsampling : 4:2:0
Bit depth : 8 bits
Scan type : Progressive
Bits/(Pixel*Frame) : 0.387
Stream size : 80.5 GiB (97%)
Writing library : x264 core 157 r2970 5493be8
Encoding settings : cabac=0 / ref=1 / deblock=0:0:0 / analyse=0:0 / me=dia / subme=0 / psy=1 / psy_rd=1.00:0.00 / mixed_ref=0 / me_range=16 / chroma_me=1 / trellis=0 / 8x8dct=0 / cqm=0 / deadzone=21,11 / fast_pskip=1 / chroma_qp_offset=0 / threads=8 / lookahead_threads=1 / sliced_threads=0 / nr=0 / decimate=1 / interlaced=0 / bluray_compat=0 / constrained_intra=0 / bframes=0 / weightp=0 / keyint=12 / keyint_min=1 / scenecut=0 / intra_refresh=0 / rc=crf / mbtree=0 / crf=15.0 / qcomp=0.60 / qpmin=0 / qpmax=69 / qpstep=4 / ip_ratio=1.40 / aq=0
Default : Yes
Forced : No

Audio #1
ID : 2
Format : AC-3
Format/Info : Audio Coding 3
Commercial name : Dolby Digital
Codec ID : A_AC3
Duration : 2 h 29 min
Bit rate mode : Constant
Bit rate : 384 kb/s
Channel(s) : 6 channels
Channel layout : L R C LFE Ls Rs
Sampling rate : 48.0 kHz
Frame rate : 31.250 FPS (1536 SPF)
Compression mode : Lossy
Delay relative to video : 70 ms
Stream size : 411 MiB (0%)
Title : AC3 5.1ch 384 kbps
Language : Russian
Service kind : Complete Main
Default : Yes
Forced : Yes

Audio #2
ID : 3
Format : DTS
Format/Info : Digital Theater Systems
Codec ID : A_DTS
Duration : 2 h 29 min
Bit rate mode : Constant
Bit rate : 1 510 kb/s
Channel(s) : 6 channels
Channel layout : C L R Ls Rs LFE
Sampling rate : 48.0 kHz
Frame rate : 93.750 FPS (512 SPF)
Bit depth : 24 bits
Compression mode : Lossy
Stream size : 1.58 GiB (2%)
Title : DTS 5.1ch 1536 kbps
Language : English
Default : No
Forced : No

Audio #3
ID : 4
Format : Vorbis
Format settings, Floor : 1
Codec ID : A_VORBIS
Duration : 2 h 29 min
Bit rate mode : Variable
Bit rate : 80.0 kb/s
Channel(s) : 2 channels
Sampling rate : 48.0 kHz
Frame rate : 57.171 FPS (840 SPF)
Compression mode : Lossy
Stream size : 78.0 MiB (0%)
Title : Commentary 1
Writing library : aoTuV b5c (UTC 2008-12-15)
Language : English
Default : No
Forced : No

Audio #4
ID : 5
Format : Vorbis
Format settings, Floor : 1
Codec ID : A_VORBIS
Duration : 2 h 29 min
Bit rate mode : Variable
Bit rate : 80.0 kb/s
Channel(s) : 2 channels
Sampling rate : 48.0 kHz
Frame rate : 52.267 FPS (918 SPF)
Compression mode : Lossy
Stream size : 85.0 MiB (0%)
Title : Commentary 2
Writing library : aoTuV b5c (UTC 2008-12-15)
Language : English
Default : No
Forced : No

Audio #5
ID : 6
Format : Vorbis
Format settings, Floor : 1
Codec ID : A_VORBIS
Duration : 2 h 29 min
Bit rate mode : Variable
Bit rate : 80.0 kb/s
Channel(s) : 2 channels
Sampling rate : 48.0 kHz
Frame rate : 59.451 FPS (807 SPF)
Compression mode : Lossy
Stream size : 90.1 MiB (0%)
Title : Commentary 3
Writing library : aoTuV b5c (UTC 2008-12-15)
Language : English
Default : No
Forced : No

Text #1
ID : 7
Format : UTF-8
Codec ID : S_TEXT/UTF8
Codec ID/Info : UTF-8 Plain Text
Duration : 2 h 21 min
Bit rate : 95 b/s
Count of elements : 1880
Stream size : 98.9 KiB (0%)
Language : Russian
Default : No
Forced : No

Text #2
ID : 8
Format : UTF-8
Codec ID : S_TEXT/UTF8
Codec ID/Info : UTF-8 Plain Text
Duration : 2 h 19 min
Bit rate : 70 b/s
Count of elements : 1809
Stream size : 72.5 KiB (0%)
Language : English
Default : No
Forced : No



首发4K蓝光REMUX俄版资源,无视迅雷下载软件,推荐使用qBittorrent等下载软件,有条件的推荐115更好的下载软件!

超时空接触(82.77GB)Contact.1997.BDRemux.AI_UPSCALE_3840x2160_alq-8_SDR_Finalalang
游客,如果您要查看本帖隐藏内容请回复



心,爱心.gif


回复

使用道具 举报

1

主题

1217

帖子

3671

积分

4K家园VIP

Rank: 9Rank: 9Rank: 9

积分
3671
发表于 2021-3-11 10:18:25 | 显示全部楼层
这个资源我记得是一套的,楼主还有没有
回复 支持 反对

使用道具 举报

0

主题

23

帖子

1649

积分

4K家园VIP

Rank: 9Rank: 9Rank: 9

积分
1649
发表于 2021-3-11 19:24:46 | 显示全部楼层
拍得非常棒的电影
回复 支持 反对

使用道具 举报

0

主题

20

帖子

77

积分

新手上路

Rank: 1

积分
77
发表于 2021-3-11 21:52:37 | 显示全部楼层
拍得非常棒的电影
回复 支持 反对

使用道具 举报

0

主题

1

帖子

10

积分

新手上路

Rank: 1

积分
10
发表于 2021-3-12 11:23:38 | 显示全部楼层
有没有下载一部的价格
回复 支持 反对

使用道具 举报

0

主题

5

帖子

118

积分

4K家园VIP

Rank: 9Rank: 9Rank: 9

积分
118
发表于 2021-3-12 19:23:36 | 显示全部楼层
感谢楼主,这是部非常好的片子。
回复 支持 反对

使用道具 举报

0

主题

20

帖子

77

积分

新手上路

Rank: 1

积分
77
发表于 2021-3-13 22:33:50 | 显示全部楼层
感謝版主的無私發佈分享
回复 支持 反对

使用道具 举报

41

主题

1372

帖子

3926

积分

4K家园VIP

Rank: 9Rank: 9Rank: 9

积分
3926
发表于 2021-3-20 23:11:58 | 显示全部楼层
我只是看看啊,不说话
回复 支持 反对

使用道具 举报

0

主题

1545

帖子

4147

积分

4K家园VIP

Rank: 9Rank: 9Rank: 9

积分
4147
发表于 2021-3-21 18:33:58 来自手机 | 显示全部楼层
前排顶起
回复 支持 反对

使用道具 举报

0

主题

1193

帖子

3589

积分

4K家园VIP

Rank: 9Rank: 9Rank: 9

积分
3589
发表于 2021-3-22 20:14:20 | 显示全部楼层
谢谢楼主
回复 支持 反对

使用道具 举报

您需要登录后才可以回帖 登录 | 立即注册

本版积分规则

精彩图文
Archiver|手机版|TAG|Sitemap|新帖|专题|联系我们:邮箱: 4kjia.com@gmail.com   

4k家园   ©2019