[4K UHD 蓝光原盘] 《深海圆疑/地动天惊(俄版)》4K蓝光REMUX 版本下载

[复制链接]

803

主题

827

帖子

1万

积分

超级版主

Rank: 8Rank: 8

积分
10704
 楼主| 发表于 2021-3-14 10:32:58 | 显示全部楼层 |阅读模式
本帖最后由 没完没了 于 2021-3-16 11:49 编辑

QQ图片20210301122656_副本.png

◎译  名 深海圆疑/地动天惊/天体/球体
◎片  名 Sphere
◎年  代 1998
◎产  地 美国
◎类  别 科幻 / 悬疑 / 惊悚 / 恐怖
◎语  言 英语
◎上映日期 1998-02-13
◎IMDb评分 6.1/10 from 97901 users
◎IMDb链接 https://www.imdb.com/title/tt0120184/
◎豆瓣评分 7.1/10 from 8774 users
◎豆瓣链接 https://movie.douban.com/subject/1293433/
◎片  长 134 分钟
◎导  演 巴瑞·莱文森 Barry Levinson
◎编  剧 保罗·阿塔那斯奥 Paul Attanasio
◎主  演 达斯汀·霍夫曼 Dustin Hoffman
      莎朗·斯通 Sharon Stone
      塞缪尔·杰克逊 Samuel L. Jackson
      彼德·考约特 Peter Coyote
      列维·施瑞博尔 Liev Schreiber
      奎恩·拉提法 Queen Latifah
      陆建艺 Jianyi Lu


◎简  介

  南太平洋1000尺的深海海底,美国政府发现了一艘已有300年历史的神秘太空船。当局立刻组成了一队由心理学家诺曼·古德曼(达斯汀·霍夫曼 Dustin Hoffman饰)、生物化学家贝丝·哈波琳(莎朗·斯通 Sharon Stone饰)和数学家哈瑞·亚当斯(塞缪尔·杰克逊 Samuel L. Jackson饰)这三位顶尖科学家组成的科学小组前往当地调查。他们利用高科技的实验艇深入海底进行探测。然而船体内部的一个巨大而怪异的球状体,拥有着洞悉每个人的内心世界的强大魔力,它似乎能控制每个人的思想和行为。更糟的是,一个不明海底生物也向实验艇发起了攻击。

  由美国著名导演、编剧巴瑞·莱文森执导的科幻悬疑电影《深海圆疑》,改编自迈克尔·克莱顿于1987年出版的同名小说。本片巨星云集,达斯汀·霍夫曼、莎朗·斯通 、塞缪尔·杰克逊等大牌明星联袂演出这部惊悚科幻影片。

Media Info
General
Complete name : 深海圆疑(60.39GB)Sphere.1998.BDRemux.AI_UPSCALE_3840x2160_alq-11_SDR_Finalalang.mkv
Format : Matroska
Format version : Version 4
File size : 60.4 GiB
Duration : 2 h 14 min
Overall bit rate : 64.4 Mb/s
Movie name : Sphere.1998.BD.AI_UPSCALE_3840x2160_alq-8_SDR_Final
Encoded date : UTC 2021-03-14 22:07:26
Writing application : mkvmerge v55.0.0 ('Waiting For Space') 64-bit
Writing library : libebml v1.4.2 + libmatroska v1.6.4

Video
ID : 1
Format : HEVC
Format/Info : High Efficiency Video Coding
Format profile : Main@L5.2@Main
Codec ID : V_MPEGH/ISO/HEVC
Duration : 2 h 14 min
Bit rate : 61.8 Mb/s
Width : 3 840 pixels
Height : 2 160 pixels
Display aspect ratio : 16:9
Frame rate mode : Constant
Frame rate : 23.976 (24000/1001) FPS
Color space : YUV
Chroma subsampling : 4:2:0
Bit depth : 8 bits
Bits/(Pixel*Frame) : 0.311
Stream size : 58.0 GiB (96%)
Language : English
Default : Yes
Forced : No

Audio #1
ID : 2
Format : AC-3
Format/Info : Audio Coding 3
Commercial name : Dolby Digital
Codec ID : A_AC3
Duration : 2 h 14 min
Bit rate mode : Constant
Bit rate : 448 kb/s
Channel(s) : 6 channels
Channel layout : L R C LFE Ls Rs
Sampling rate : 48.0 kHz
Frame rate : 31.250 FPS (1536 SPF)
Compression mode : Lossy
Stream size : 430 MiB (1%)
Title : AC3 5.1 @ 448 kbps - Дублированный
Language : Russian
Service kind : Complete Main
Default : Yes
Forced : Yes

Audio #2
ID : 3
Format : DTS
Format/Info : Digital Theater Systems
Codec ID : A_DTS
Duration : 2 h 14 min
Bit rate mode : Constant
Bit rate : 1 509 kb/s
Channel(s) : 6 channels
Channel layout : C L R Ls Rs LFE
Sampling rate : 48.0 kHz
Frame rate : 93.750 FPS (512 SPF)
Bit depth : 16 bits
Compression mode : Lossy
Stream size : 1.41 GiB (2%)
Title : DTS 5.1 @ 1536 kbps - Одноголосый закадровый,Ю.Живов
Language : Russian
Default : No
Forced : No

Audio #3
ID : 4
Format : AC-3
Format/Info : Audio Coding 3
Commercial name : Dolby Digital
Codec ID : A_AC3
Duration : 2 h 14 min
Bit rate mode : Constant
Bit rate : 640 kb/s
Channel(s) : 6 channels
Channel layout : L R C LFE Ls Rs
Sampling rate : 48.0 kHz
Frame rate : 31.250 FPS (1536 SPF)
Compression mode : Lossy
Stream size : 614 MiB (1%)
Title : AC3 5.1 @ 640 kbps
Language : English
Service kind : Complete Main
Default : No
Forced : No

Text #1
ID : 5
Format : UTF-8
Codec ID : S_TEXT/UTF8
Codec ID/Info : UTF-8 Plain Text
Duration : 2 h 8 min
Bit rate : 101 b/s
Count of elements : 1785
Stream size : 95.2 KiB (0%)
Language : Russian
Default : No
Forced : No

Text #2
ID : 6
Format : UTF-8
Codec ID : S_TEXT/UTF8
Codec ID/Info : UTF-8 Plain Text
Duration : 2 h 10 min
Bit rate : 68 b/s
Count of elements : 1881
Stream size : 65.4 KiB (0%)
Language : English
Default : No
Forced : No

Menu
00:00:00.000 : :Глава 01
00:05:00.000 : :Глава 02
00:10:00.000 : :Глава 03
00:15:00.000 : :Глава 04
00:20:00.000 : :Глава 05
00:25:00.000 : :Глава 06
00:30:00.000 : :Глава 07
00:35:00.000 : :Глава 08
00:40:00.000 : :Глава 09
00:45:00.000 : :Глава 10
00:50:00.000 : :Глава 11
00:55:00.000 : :Глава 12
01:00:00.000 : :Глава 13
01:05:00.000 : :Глава 14
01:10:00.000 : :Глава 15
01:15:00.000 : :Глава 16
01:20:00.000 : :Глава 17
01:25:00.000 : :Глава 18
01:30:00.000 : :Глава 19
01:35:00.000 : :Глава 20
01:40:00.000 : :Глава 21
01:45:00.000 : :Глава 22
01:50:00.000 : :Глава 23
01:55:00.000 : :Глава 24
02:00:00.000 : :Глава 25
02:05:00.000 : :Глава 26
02:10:00.000 : :Глава 27


Media Info
General
Complete name : 深海圆疑(37.72GB)Sphere.1998.BDRemux.AI_UPSCALE_3840x2160_alq-8_SDR_Finalalang
Format : Matroska
Format version : Version 4
File size : 37.7 GiB
Duration : 2 h 14 min
Overall bit rate : 40.2 Mb/s
Movie name : Sphere.1998.BD.AI_UPSCALE_3840x2160_alq-8_SDR_Final
Encoded date : UTC 2020-12-09 21:23:24
Writing application : mkvmerge v51.0.0 ('I Wish') 64-bit
Writing library : libebml v1.4.0 + libmatroska v1.6.2

Video
ID : 1
Format : AVC
Format/Info : Advanced Video Codec
Format profile : Baseline@L5.1
Format settings : 1 Ref Frames
Format settings, CABAC : No
Format settings, Reference fra : 1 frame
Format settings, GOP : M=1, N=12
Codec ID : V_MPEG4/ISO/AVC
Duration : 2 h 14 min
Bit rate : 37.6 Mb/s
Width : 3 840 pixels
Height : 2 160 pixels
Display aspect ratio : 16:9
Frame rate mode : Constant
Frame rate : 23.976 (24000/1001) FPS
Color space : YUV
Chroma subsampling : 4:2:0
Bit depth : 8 bits
Scan type : Progressive
Bits/(Pixel*Frame) : 0.189
Stream size : 35.3 GiB (94%)
Writing library : x264 core 157 r2970 5493be8
Encoding settings : cabac=0 / ref=1 / deblock=0:0:0 / analyse=0:0 / me=dia / subme=0 / psy=1 / psy_rd=1.00:0.00 / mixed_ref=0 / me_range=16 / chroma_me=1 / trellis=0 / 8x8dct=0 / cqm=0 / deadzone=21,11 / fast_pskip=1 / chroma_qp_offset=0 / threads=8 / lookahead_threads=1 / sliced_threads=0 / nr=0 / decimate=1 / interlaced=0 / bluray_compat=0 / constrained_intra=0 / bframes=0 / weightp=0 / keyint=12 / keyint_min=1 / scenecut=0 / intra_refresh=0 / rc=crf / mbtree=0 / crf=17.0 / qcomp=0.60 / qpmin=0 / qpmax=69 / qpstep=4 / ip_ratio=1.40 / aq=0
Default : Yes
Forced : No

Audio #1
ID : 2
Format : AC-3
Format/Info : Audio Coding 3
Commercial name : Dolby Digital
Codec ID : A_AC3
Duration : 2 h 14 min
Bit rate mode : Constant
Bit rate : 448 kb/s
Channel(s) : 6 channels
Channel layout : L R C LFE Ls Rs
Sampling rate : 48.0 kHz
Frame rate : 31.250 FPS (1536 SPF)
Compression mode : Lossy
Stream size : 430 MiB (1%)
Title : AC3 5.1 @ 448 kbps - Дублированный
Language : Russian
Service kind : Complete Main
Default : Yes
Forced : Yes

Audio #2
ID : 3
Format : DTS
Format/Info : Digital Theater Systems
Codec ID : A_DTS
Duration : 2 h 14 min
Bit rate mode : Constant
Bit rate : 1 509 kb/s
Channel(s) : 6 channels
Channel layout : C L R Ls Rs LFE
Sampling rate : 48.0 kHz
Frame rate : 93.750 FPS (512 SPF)
Bit depth : 16 bits
Compression mode : Lossy
Stream size : 1.41 GiB (4%)
Title : DTS 5.1 @ 1536 kbps - Одноголосый закадровый,Ю.Живов
Language : Russian
Default : No
Forced : No

Audio #3
ID : 4
Format : AC-3
Format/Info : Audio Coding 3
Commercial name : Dolby Digital
Codec ID : A_AC3
Duration : 2 h 14 min
Bit rate mode : Constant
Bit rate : 640 kb/s
Channel(s) : 6 channels
Channel layout : L R C LFE Ls Rs
Sampling rate : 48.0 kHz
Frame rate : 31.250 FPS (1536 SPF)
Compression mode : Lossy
Stream size : 614 MiB (2%)
Title : AC3 5.1 @ 640 kbps
Language : English
Service kind : Complete Main
Default : No
Forced : No

Text #1
ID : 5
Format : UTF-8
Codec ID : S_TEXT/UTF8
Codec ID/Info : UTF-8 Plain Text
Duration : 2 h 8 min
Bit rate : 101 b/s
Count of elements : 1785
Stream size : 95.2 KiB (0%)
Language : Russian
Default : No
Forced : No

Text #2
ID : 6
Format : UTF-8
Codec ID : S_TEXT/UTF8
Codec ID/Info : UTF-8 Plain Text
Duration : 2 h 10 min
Bit rate : 68 b/s
Count of elements : 1881
Stream size : 65.4 KiB (0%)
Language : English
Default : No
Forced : No

Menu
00:00:00.000 : :Глава 01
00:05:00.000 : :Глава 02
00:10:00.000 : :Глава 03
00:15:00.000 : :Глава 04
00:20:00.000 : :Глава 05
00:25:00.000 : :Глава 06
00:30:00.000 : :Глава 07
00:35:00.000 : :Глава 08
00:40:00.000 : :Глава 09
00:45:00.000 : :Глава 10
00:50:00.000 : :Глава 11
00:55:00.000 : :Глава 12
01:00:00.000 : :Глава 13
01:05:00.000 : :Глава 14
01:10:00.000 : :Глава 15
01:15:00.000 : :Глава 16
01:20:00.000 : :Глава 17
01:25:00.000 : :Глава 18
01:30:00.000 : :Глава 19
01:35:00.000 : :Глава 20
01:40:00.000 : :Глава 21
01:45:00.000 : :Глава 22
01:50:00.000 : :Глава 23
01:55:00.000 : :Глава 24
02:00:00.000 : :Глава 25
02:05:00.000 : :Глава 26
02:10:00.000 : :Глава 27


首发4K蓝光REMUX俄版资源,无视迅雷下载软件,推荐使用qBittorrent等下载软件,有条件的推荐115更好的下载软件!
深海圆疑(60.39GB)Sphere.1998.BDRemux.AI_UPSCALE_3840x2160_alq-11_SDR_Finalalang
游客,如果您要查看本帖隐藏内容请回复


深海圆疑(37.72GB)Sphere.1998.BDRemux.AI_UPSCALE_3840x2160_alq-8_SDR_Finalalang
游客,如果您要查看本帖隐藏内容请回复


心,爱心.gif


回复

使用道具 举报

1

主题

1518

帖子

4094

积分

4K家园VIP

Rank: 9Rank: 9Rank: 9

积分
4094
发表于 2021-3-14 10:33:08 | 显示全部楼层
4K家园不错,希望这种资源越多越好
回复 支持 反对

使用道具 举报

0

主题

3503

帖子

9830

积分

4K家园VIP

Rank: 9Rank: 9Rank: 9

积分
9830
发表于 2021-3-14 10:57:26 | 显示全部楼层
太好啦&萬分感謝版主的無私發佈分享%
回复 支持 反对

使用道具 举报

0

主题

10

帖子

325

积分

4K家园VIP

Rank: 9Rank: 9Rank: 9

积分
325
发表于 2021-3-14 13:17:54 | 显示全部楼层
非常感谢楼主
回复 支持 反对

使用道具 举报

0

主题

1497

帖子

4119

积分

4K家园VIP

Rank: 9Rank: 9Rank: 9

积分
4119
发表于 2021-3-14 22:26:42 | 显示全部楼层
4K家园资源不错,前排支持
回复 支持 反对

使用道具 举报

0

主题

213

帖子

1658

积分

4K家园VIP

Rank: 9Rank: 9Rank: 9

积分
1658
发表于 2021-3-15 11:47:33 | 显示全部楼层
神奇女侠1984
回复 支持 反对

使用道具 举报

1

主题

1297

帖子

3723

积分

4K家园VIP

Rank: 9Rank: 9Rank: 9

积分
3723
发表于 2021-3-17 11:16:58 | 显示全部楼层
这个资源我记得是一套的,楼主还有没有
回复 支持 反对

使用道具 举报

0

主题

1035

帖子

3083

积分

4K家园VIP

Rank: 9Rank: 9Rank: 9

积分
3083
发表于 2021-3-31 14:38:46 来自手机 | 显示全部楼层
你们要是有4K资源记得分享,别小气
回复 支持 反对

使用道具 举报

57

主题

1397

帖子

4047

积分

4K家园VIP

Rank: 9Rank: 9Rank: 9

积分
4047
发表于 5 天前 | 显示全部楼层
楼主这资源不错,我收藏了
回复 支持 反对

使用道具 举报

您需要登录后才可以回帖 登录 | 立即注册

本版积分规则

精彩图文
Archiver|手机版|TAG|Sitemap|新帖|专题|联系我们:邮箱: 4kjia.com@gmail.com   

4k家园   ©2019