[4K测试视频] [国家地理] 天文台(2019)[2160P/MKV/1.83GB]

[复制链接]

2263

主题

2552

帖子

2万

积分

超级版主

Rank: 8Rank: 8

积分
21158
 楼主| 发表于 2021-3-12 11:50:53 | 显示全部楼层 |阅读模式

01. 非洲.mkv_20210303_193507.552_副本.jpg 01. 非洲.mkv_20210303_193516.383_副本.jpg 02. ЧИЛИ.mkv_20210303_193546.392.jpg 02. ЧИЛИ.mkv_20210303_193553.840.jpg 03. ЛА ПАЛЬМА.mkv_20210303_193800.128.jpg 03. ЛА ПАЛЬМА.mkv_20210303_193808.408.jpg

关于信息
标题:天文台
发行年: 2019
国家:德国
时间: 0时14分22秒
体裁: 种类
导演:马丁·赫克

关于电影:

         前往这个星球的大型天文台。



General
Unique ID                      : 172605968549723965522962923946905834890 (0x81DAB3498C054CB85FE3FC4D1712158A)
Complete name                  : D:\360安全浏览器下载\天文台(1.83GB)(2019)WE​​BRip 2160p\03. ЛА ПАЛЬМА.mkv
Format                         : Matroska
Format version                 : Version 4
File size                      : 414 MiB
Duration                       : 3 min 14 s
Overall bit rate               : 17.9 Mb/s
Encoded date                   : UTC 2021-03-02 19:18:51
Writing application            : mkvmerge v54.0.0 ('F Maj Pixie') 64-bit
Writing library                : libebml v1.4.2 + libmatroska v1.6.3

Video
ID                             : 1
Format                         : AVC
Format/Info                    : Advanced Video Codec
Format profile                 : High@L5.2
Format settings                : CABAC / 5 Ref Frames
Format settings, CABAC         : Yes
Format settings, Reference fra : 5 frames
Codec ID                       : V_MPEG4/ISO/AVC
Duration                       : 3 min 14 s
Bit rate                       : 17.6 Mb/s
Width                          : 3 840 pixels
Height                         : 2 160 pixels
Display aspect ratio           : 16:9
Frame rate mode                : Constant
Frame rate                     : 29.970 (30000/1001) FPS
Color space                    : YUV
Chroma subsampling             : 4:2:0
Bit depth                      : 8 bits
Scan type                      : Progressive
Bits/(Pixel*Frame)             : 0.071
Stream size                    : 408 MiB (99%)
Writing library                : x264 core 157 r10 d4099dd
Encoding settings              : cabac=1 / ref=5 / deblock=1:0:0 / analyse=0x3:0x113 / me=hex / subme=8 / psy=1 / psy_rd=1.00:0.00 / mixed_ref=1 / me_range=16 / chroma_me=1 / trellis=2 / 8x8dct=1 / cqm=0 / deadzone=21,11 / fast_pskip=1 / chroma_qp_offset=-2 / threads=48 / lookahead_threads=8 / sliced_threads=0 / nr=0 / decimate=1 / interlaced=0 / bluray_compat=0 / stitchable=1 / constrained_intra=0 / bframes=3 / b_pyramid=2 / b_adapt=2 / b_bias=0 / direct=3 / weightb=1 / open_gop=0 / weightp=2 / keyint=infinite / keyint_min=29 / scenecut=40 / intra_refresh=0 / rc_lookahead=50 / rc=crf / mbtree=1 / crf=20.0 / qcomp=0.60 / qpmin=5 / qpmax=69 / qpstep=4 / vbv_maxrate=24200 / vbv_bufsize=66000 / crf_max=0.0 / nal_hrd=none / filler=0 / ip_ratio=1.40 / aq=1:1.00
Default                        : Yes
Forced                         : No
Color range                    : Limited
Color primaries                : BT.709
Transfer characteristics       : BT.709
Matrix coefficients            : BT.709

Audio
ID                             : 2
Format                         : AAC LC
Format/Info                    : Advanced Audio Codec Low Complexity
Codec ID                       : A_AAC-2
Duration                       : 3 min 14 s
Bit rate                       : 253 kb/s
Channel(s)                     : 2 channels
Channel layout                 : L R
Sampling rate                  : 48.0 kHz
Frame rate                     : 46.875 FPS (1024 SPF)
Compression mode               : Lossy
Stream size                    : 5.87 MiB (1%)
Default                        : Yes
Forced                         : No



天文台(1.83GB)(2019)WE​​BRip 2160p.torrent (19.4 KB, 售价: 15 金币)
回复

使用道具 举报

0

主题

1185

帖子

3437

积分

4K家园VIP

Rank: 9Rank: 9Rank: 9

积分
3437
发表于 2021-3-12 11:50:59 来自手机 | 显示全部楼层
体验下4K版的
回复 支持 反对

使用道具 举报

0

主题

3521

帖子

9861

积分

4K家园VIP

Rank: 9Rank: 9Rank: 9

积分
9861
发表于 2021-3-12 12:54:38 | 显示全部楼层
德国天文台4k
回复 支持 反对

使用道具 举报

55

主题

1316

帖子

3824

积分

4K家园VIP

Rank: 9Rank: 9Rank: 9

积分
3824
发表于 2021-3-12 17:18:47 | 显示全部楼层
传说中的沙发???哇卡卡
回复 支持 反对

使用道具 举报

0

主题

1431

帖子

3893

积分

4K家园VIP

Rank: 9Rank: 9Rank: 9

积分
3893
发表于 2021-3-15 12:52:50 | 显示全部楼层
1v1飘过
回复 支持 反对

使用道具 举报

46

主题

1311

帖子

3769

积分

4K家园VIP

Rank: 9Rank: 9Rank: 9

积分
3769
发表于 2021-3-16 15:28:12 | 显示全部楼层
介是神马?!!
回复 支持 反对

使用道具 举报

0

主题

1197

帖子

3601

积分

4K家园VIP

Rank: 9Rank: 9Rank: 9

积分
3601
发表于 2021-3-17 17:35:15 | 显示全部楼层
我是个凑数的。。。
回复 支持 反对

使用道具 举报

0

主题

418

帖子

1432

积分

注册会员

Rank: 2

积分
1432
发表于 2021-3-20 20:55:59 | 显示全部楼层
感谢分享好电影~
回复 支持 反对

使用道具 举报

您需要登录后才可以回帖 登录 | 立即注册

本版积分规则

精彩图文
Archiver|手机版|TAG|Sitemap|新帖|专题|联系我们:邮箱: 4kjia.com@gmail.com   

4k家园   ©2019