[4K记录视频] [国家地理] 最前沿的自然美景(2019)[2160P/MKV/628MB]

[复制链接]

2262

主题

2551

帖子

2万

积分

超级版主

Rank: 8Rank: 8

积分
21144
 楼主| 发表于 2021-3-11 10:10:45 | 显示全部楼层 |阅读模式
本帖最后由 叽里呱啦 于 2021-3-11 10:10 编辑

最前沿的自然美景(628.92MB)Náttúraníöndvegi(2019)WE​​BRip 2160p.mkv_202.jpg 最前沿的自然美景(628.92MB)Náttúraníöndvegi(2019)WE​​BRip 2160p.mkv_202.jpg 最前沿的自然美景(628.92MB)Náttúraníöndvegi(2019)WE​​BRip 2160p.mkv_202.jpg 最前沿的自然美景(628.92MB)Náttúraníöndvegi(2019)WE​​BRip 2160p.mkv_202.jpg 最前沿的自然美景(628.92MB)Náttúraníöndvegi(2019)WE​​BRip 2160p.mkv_202.jpg 最前沿的自然美景(628.92MB)Náttúraníöndvegi(2019)WE​​BRip 2160p.mkv_202.jpg

标题:最前沿的自然美景
发行年份: 2019
国家/地区: Isapania
时长: 00 : 04 : 13
体裁: 种类
导演: Olafur Mar Bjornsson

关于电影:

          该视频致力于冰岛自然的心脏,未经开发的高原和海岸线。可以为子孙后代享用和保存的东西。


General
Complete name                  : G:\国家地理\最前沿的自然美景(628.92MB)Náttúraníöndvegi(2019)WE​​BRip 2160p.mkv
Format                         : Matroska
Format version                 : Version 4
File size                      : 629 MiB
Duration                       : 4 min 13 s
Overall bit rate               : 20.8 Mb/s
Encoded date                   : UTC 2021-01-31 16:53:30
Writing application            : mkvmerge v53.0.0 ('Fool's Gold') 64-bit
Writing library                : libebml v1.4.1 + libmatroska v1.6.2

Video
ID                             : 1
Format                         : AVC
Format/Info                    : Advanced Video Codec
Format profile                 : High@L5.2
Format settings                : CABAC / 5 Ref Frames
Format settings, CABAC         : Yes
Format settings, Reference fra : 5 frames
Codec ID                       : V_MPEG4/ISO/AVC
Duration                       : 4 min 13 s
Bit rate                       : 20.6 Mb/s
Width                          : 3 840 pixels
Height                         : 2 160 pixels
Display aspect ratio           : 16:9
Frame rate mode                : Constant
Frame rate                     : 25.000 FPS
Color space                    : YUV
Chroma subsampling             : 4:2:0
Bit depth                      : 8 bits
Scan type                      : Progressive
Bits/(Pixel*Frame)             : 0.099
Stream size                    : 621 MiB (99%)
Writing library                : x264 core 157 r10 d4099dd
Encoding settings              : cabac=1 / ref=5 / deblock=1:0:0 / analyse=0x3:0x113 / me=hex / subme=8 / psy=1 / psy_rd=1.00:0.00 / mixed_ref=1 / me_range=16 / chroma_me=1 / trellis=2 / 8x8dct=1 / cqm=0 / deadzone=21,11 / fast_pskip=1 / chroma_qp_offset=-2 / threads=48 / lookahead_threads=8 / sliced_threads=0 / nr=0 / decimate=1 / interlaced=0 / bluray_compat=0 / stitchable=1 / constrained_intra=0 / bframes=3 / b_pyramid=2 / b_adapt=2 / b_bias=0 / direct=3 / weightb=1 / open_gop=0 / weightp=2 / keyint=infinite / keyint_min=25 / scenecut=40 / intra_refresh=0 / rc_lookahead=50 / rc=crf / mbtree=1 / crf=20.0 / qcomp=0.60 / qpmin=5 / qpmax=69 / qpstep=4 / vbv_maxrate=24200 / vbv_bufsize=66000 / crf_max=0.0 / nal_hrd=none / filler=0 / ip_ratio=1.40 / aq=1:1.00
Default                        : Yes
Forced                         : No
Color range                    : Limited
Color primaries                : BT.709
Transfer characteristics       : BT.709
Matrix coefficients            : BT.709

Audio
ID                             : 2
Format                         : AAC LC
Format/Info                    : Advanced Audio Codec Low Complexity
Codec ID                       : A_AAC-2
Duration                       : 4 min 13 s
Bit rate                       : 253 kb/s
Channel(s)                     : 2 channels
Channel layout                 : L R
Sampling rate                  : 48.0 kHz
Frame rate                     : 46.875 FPS (1024 SPF)
Compression mode               : Lossy
Stream size                    : 7.66 MiB (1%)
Default                        : Yes
Forced                         : No




最前沿的自然(628.92MB)Náttúraníöndvegi(2019)WE​​BRip 2160p.torrent (12.47 KB, 售价: 15 金币)
回复

使用道具 举报

1

主题

1283

帖子

3691

积分

4K家园VIP

Rank: 9Rank: 9Rank: 9

积分
3691
发表于 2021-3-11 10:10:52 | 显示全部楼层
路过
回复 支持 反对

使用道具 举报

0

主题

3503

帖子

9830

积分

4K家园VIP

Rank: 9Rank: 9Rank: 9

积分
9830
发表于 2021-3-11 12:50:57 | 显示全部楼层
冰岛的自然美景4k
回复 支持 反对

使用道具 举报

48

主题

1368

帖子

3906

积分

4K家园VIP

Rank: 9Rank: 9Rank: 9

积分
3906
发表于 2021-3-11 14:45:52 | 显示全部楼层
我也来顶一下..
回复 支持 反对

使用道具 举报

57

主题

1342

帖子

3848

积分

4K家园VIP

Rank: 9Rank: 9Rank: 9

积分
3848
发表于 2021-3-11 19:25:31 | 显示全部楼层
大人,此事必有蹊跷!
回复 支持 反对

使用道具 举报

3

主题

1234

帖子

3540

积分

4K家园VIP

Rank: 9Rank: 9Rank: 9

积分
3540
发表于 2021-3-11 22:47:44 | 显示全部楼层
顶起顶起顶起
回复 支持 反对

使用道具 举报

0

主题

1271

帖子

3645

积分

中级会员

Rank: 4

积分
3645
发表于 2021-3-12 08:56:34 | 显示全部楼层
好帖必须得顶起
回复 支持 反对

使用道具 举报

0

主题

20

帖子

76

积分

新手上路

Rank: 1

积分
76
发表于 2021-3-15 22:31:15 | 显示全部楼层
真是太棒了
回复 支持 反对

使用道具 举报

您需要登录后才可以回帖 登录 | 立即注册

本版积分规则

精彩图文
Archiver|手机版|TAG|Sitemap|新帖|专题|联系我们:邮箱: 4kjia.com@gmail.com   

4k家园   ©2019