[4K记录视频] [国家地理] 智利 4K@60fps(2019)[2160P/MKV/813MB]

[复制链接]

2263

主题

2552

帖子

2万

积分

超级版主

Rank: 8Rank: 8

积分
21158
 楼主| 发表于 2021-3-23 10:25:53 | 显示全部楼层 |阅读模式
本帖最后由 叽里呱啦 于 2021-3-3 20:28 编辑

智利(813.3MB)(2019)WE​​BRip 2160p.mkv_20210303_202320.868.jpg 智利(813.3MB)(2019)WE​​BRip 2160p.mkv_20210303_202326.976.jpg 智利(813.3MB)(2019)WE​​BRip 2160p.mkv_20210303_202331.648.jpg 智利(813.3MB)(2019)WE​​BRip 2160p.mkv_20210303_202337.351.jpg 智利(813.3MB)(2019)WE​​BRip 2160p.mkv_20210303_202342.983.jpg 智利(813.3MB)(2019)WE​​BRip 2160p.mkv_20210303_202352.263.jpg

General
Complete name                  : G:\国家地理\智利 4K@60fps(2019)WE​​BRip 2160p.mkv
Format                         : Matroska
Format version                 : Version 4
File size                      : 813 MiB
Duration                       : 5 min 41 s
Overall bit rate               : 20.0 Mb/s
Encoded date                   : UTC 2021-02-03 20:14:00
Writing application            : mkvmerge v53.0.0 ('Fool's Gold') 64-bit
Writing library                : libebml v1.4.1 + libmatroska v1.6.2

Video
ID                             : 1
Format                         : AVC
Format/Info                    : Advanced Video Codec
Format profile                 : High@L5.2
Format settings                : CABAC / 5 Ref Frames
Format settings, CABAC         : Yes
Format settings, Reference fra : 5 frames
Codec ID                       : V_MPEG4/ISO/AVC
Duration                       : 5 min 41 s
Bit rate                       : 19.7 Mb/s
Width                          : 3 840 pixels
Height                         : 2 160 pixels
Display aspect ratio           : 16:9
Frame rate mode                : Constant
Frame rate                     : 59.940 (60000/1001) FPS
Color space                    : YUV
Chroma subsampling             : 4:2:0
Bit depth                      : 8 bits
Scan type                      : Progressive
Bits/(Pixel*Frame)             : 0.040
Stream size                    : 803 MiB (99%)
Writing library                : x264 core 157 r10 d4099dd
Encoding settings              : cabac=1 / ref=5 / deblock=1:0:0 / analyse=0x3:0x113 / me=hex / subme=8 / psy=1 / psy_rd=1.00:0.00 / mixed_ref=1 / me_range=16 / chroma_me=1 / trellis=2 / 8x8dct=1 / cqm=0 / deadzone=21,11 / fast_pskip=1 / chroma_qp_offset=-2 / threads=48 / lookahead_threads=8 / sliced_threads=0 / nr=0 / decimate=1 / interlaced=0 / bluray_compat=0 / stitchable=1 / constrained_intra=0 / bframes=3 / b_pyramid=2 / b_adapt=2 / b_bias=0 / direct=3 / weightb=1 / open_gop=0 / weightp=2 / keyint=infinite / keyint_min=59 / scenecut=40 / intra_refresh=0 / rc_lookahead=50 / rc=crf / mbtree=1 / crf=20.0 / qcomp=0.60 / qpmin=5 / qpmax=69 / qpstep=4 / vbv_maxrate=24200 / vbv_bufsize=66000 / crf_max=0.0 / nal_hrd=none / filler=0 / ip_ratio=1.40 / aq=1:1.00
Default                        : Yes
Forced                         : No
Color range                    : Limited
Color primaries                : BT.709
Transfer characteristics       : BT.709
Matrix coefficients            : BT.709

Audio
ID                             : 2
Format                         : AAC LC
Format/Info                    : Advanced Audio Codec Low Complexity
Codec ID                       : A_AAC-2
Duration                       : 5 min 41 s
Bit rate                       : 253 kb/s
Channel(s)                     : 2 channels
Channel layout                 : L R
Sampling rate                  : 48.0 kHz
Frame rate                     : 46.875 FPS (1024 SPF)
Compression mode               : Lossy
Stream size                    : 10.3 MiB (1%)
Default                        : Yes
Forced                         : No




60fps视频,请用专业4K播放器播放,注意卡顿.
智利 4K@60fps(2019)WE​​BRip 2160p.torrent (16.88 KB, 售价: 15 金币)
回复

使用道具 举报

48

主题

1368

帖子

3906

积分

4K家园VIP

Rank: 9Rank: 9Rank: 9

积分
3906
发表于 2021-3-23 10:26:25 | 显示全部楼层
什么东西啊
回复 支持 反对

使用道具 举报

0

主题

3521

帖子

9861

积分

4K家园VIP

Rank: 9Rank: 9Rank: 9

积分
9861
发表于 2021-3-23 11:30:13 | 显示全部楼层
太好啦&萬分感謝版主的無私發佈分享%
回复 支持 反对

使用道具 举报

1

主题

1452

帖子

3958

积分

4K家园VIP

Rank: 9Rank: 9Rank: 9

积分
3958
发表于 2021-3-23 23:42:11 来自手机 | 显示全部楼层
向楼主学习
回复 支持 反对

使用道具 举报

3

主题

1266

帖子

3632

积分

中级会员

Rank: 4

积分
3632
发表于 2021-3-25 02:17:05 | 显示全部楼层
沙发???
回复 支持 反对

使用道具 举报

53

主题

1084

帖子

3318

积分

4K家园VIP

Rank: 9Rank: 9Rank: 9

积分
3318
发表于 2021-3-27 20:02:02 | 显示全部楼层
垃圾内容,路过为证。
回复 支持 反对

使用道具 举报

1

主题

1482

帖子

4036

积分

4K家园VIP

Rank: 9Rank: 9Rank: 9

积分
4036
发表于 2021-3-30 07:14:22 | 显示全部楼层
路过
回复 支持 反对

使用道具 举报

0

主题

418

帖子

1432

积分

注册会员

Rank: 2

积分
1432
发表于 2021-3-31 22:03:22 | 显示全部楼层
感谢楼主分享
回复 支持 反对

使用道具 举报

您需要登录后才可以回帖 登录 | 立即注册

本版积分规则

精彩图文
Archiver|手机版|TAG|Sitemap|新帖|专题|联系我们:邮箱: 4kjia.com@gmail.com   

4k家园   ©2019