[4K记录视频] [国家地理] 土耳其-伊斯坦布尔(2020)[2160P/MKV/508MB]

[复制链接]

2262

主题

2551

帖子

2万

积分

超级版主

Rank: 8Rank: 8

积分
21144
 楼主| 发表于 2021-3-22 19:11:22 | 显示全部楼层 |阅读模式

伊斯坦布尔(508.93MB)(2020)WEBRip 2160p.mkv_20210303_203035.679.jpg 伊斯坦布尔(508.93MB)(2020)WEBRip 2160p.mkv_20210303_203043.103.jpg 伊斯坦布尔(508.93MB)(2020)WEBRip 2160p.mkv_20210303_203051.055.jpg 伊斯坦布尔(508.93MB)(2020)WEBRip 2160p.mkv_20210303_203059.063.jpg 伊斯坦布尔(508.93MB)(2020)WEBRip 2160p.mkv_20210303_203104.551.jpg 伊斯坦布尔(508.93MB)(2020)WEBRip 2160p.mkv_20210303_203108.743.jpg 伊斯坦布尔(508.93MB)(2020)WEBRip 2160p.mkv_20210303_203117.791.jpg

标题:伊斯坦布尔
发行年份: 2020
国家/地区:土耳其
时长: 00 : 02 : 59
类型: 种类
导演: TarıkSancaklı

关于电影:

          这是我的第一部延时摄影影片,由4500帧组成,我通过组合数十个延时录像制作我在6个月内开枪...



General
Complete name                  : G:\国家地理\伊斯坦布尔(508.93MB)(2020)WEBRip 2160p.mkv
Format                         : Matroska
Format version                 : Version 4
File size                      : 509 MiB
Duration                       : 2 min 59 s
Overall bit rate               : 23.8 Mb/s
Encoded date                   : UTC 2021-01-31 20:01:59
Writing application            : mkvmerge v53.0.0 ('Fool's Gold') 64-bit
Writing library                : libebml v1.4.1 + libmatroska v1.6.2

Video
ID                             : 1
Format                         : AVC
Format/Info                    : Advanced Video Codec
Format profile                 : High@L5.2
Format settings                : CABAC / 5 Ref Frames
Format settings, CABAC         : Yes
Format settings, Reference fra : 5 frames
Codec ID                       : V_MPEG4/ISO/AVC
Duration                       : 2 min 59 s
Bit rate                       : 23.5 Mb/s
Width                          : 3 840 pixels
Height                         : 2 160 pixels
Display aspect ratio           : 16:9
Frame rate mode                : Constant
Frame rate                     : 25.000 FPS
Color space                    : YUV
Chroma subsampling             : 4:2:0
Bit depth                      : 8 bits
Scan type                      : Progressive
Bits/(Pixel*Frame)             : 0.114
Stream size                    : 503 MiB (99%)
Writing library                : x264 core 160 r10 33f9e14
Encoding settings              : cabac=1 / ref=5 / deblock=1:0:0 / analyse=0x3:0x113 / me=hex / subme=8 / psy=1 / psy_rd=1.00:0.00 / mixed_ref=1 / me_range=16 / chroma_me=1 / trellis=2 / 8x8dct=1 / cqm=0 / deadzone=21,11 / fast_pskip=1 / chroma_qp_offset=-2 / threads=48 / lookahead_threads=8 / sliced_threads=0 / nr=0 / decimate=1 / interlaced=0 / bluray_compat=0 / stitchable=1 / constrained_intra=0 / bframes=3 / b_pyramid=2 / b_adapt=2 / b_bias=0 / direct=3 / weightb=1 / open_gop=0 / weightp=2 / keyint=infinite / keyint_min=25 / scenecut=40 / intra_refresh=0 / rc_lookahead=50 / rc=crf / mbtree=1 / crf=20.0 / qcomp=0.60 / qpmin=5 / qpmax=69 / qpstep=4 / vbv_maxrate=24200 / vbv_bufsize=66000 / crf_max=0.0 / nal_hrd=none / filler=0 / ip_ratio=1.40 / aq=1:1.00
Default                        : Yes
Forced                         : No
Color range                    : Limited
Color primaries                : BT.709
Transfer characteristics       : BT.709
Matrix coefficients            : BT.709

Audio
ID                             : 2
Format                         : AAC LC
Format/Info                    : Advanced Audio Codec Low Complexity
Codec ID                       : A_AAC-2
Duration                       : 2 min 59 s
Bit rate                       : 253 kb/s
Channel(s)                     : 2 channels
Channel layout                 : L R
Sampling rate                  : 48.0 kHz
Frame rate                     : 46.875 FPS (1024 SPF)
Compression mode               : Lossy
Stream size                    : 5.42 MiB (1%)
Default                        : Yes
Forced                         : No



伊斯坦布尔(508.93MB)(2020)WEBRip 2160p.torrent (20.05 KB, 售价: 15 金币)
回复

使用道具 举报

0

主题

1246

帖子

3558

积分

4K家园VIP

Rank: 9Rank: 9Rank: 9

积分
3558
发表于 2021-3-22 19:11:26 | 显示全部楼层
大人,此事必有蹊跷!
回复 支持 反对

使用道具 举报

0

主题

3503

帖子

9830

积分

4K家园VIP

Rank: 9Rank: 9Rank: 9

积分
9830
发表于 2021-3-22 19:17:57 | 显示全部楼层
土耳其-伊斯坦布尔4k
回复 支持 反对

使用道具 举报

1

主题

1232

帖子

3540

积分

4K家园VIP

Rank: 9Rank: 9Rank: 9

积分
3540
发表于 2021-3-22 21:04:37 | 显示全部楼层
好像还可以
回复 支持 反对

使用道具 举报

2

主题

1258

帖子

3624

积分

中级会员

Rank: 4

积分
3624
发表于 2021-3-23 04:17:00 来自手机 | 显示全部楼层
1v1飘过
回复 支持 反对

使用道具 举报

0

主题

1171

帖子

3529

积分

4K家园VIP

Rank: 9Rank: 9Rank: 9

积分
3529
发表于 2021-3-23 05:01:21 | 显示全部楼层
珍爱生命,果断回帖。
回复 支持 反对

使用道具 举报

1

主题

1297

帖子

3723

积分

4K家园VIP

Rank: 9Rank: 9Rank: 9

积分
3723
发表于 2021-3-23 08:35:17 来自手机 | 显示全部楼层
我也顶起出售广告位
回复 支持 反对

使用道具 举报

0

主题

413

帖子

1414

积分

注册会员

Rank: 2

积分
1414
发表于 2021-3-24 20:58:05 | 显示全部楼层
谢谢楼主的分享
回复 支持 反对

使用道具 举报

0

主题

413

帖子

1414

积分

注册会员

Rank: 2

积分
1414
发表于 2021-3-30 21:32:13 | 显示全部楼层
感谢楼主分享
回复 支持 反对

使用道具 举报

您需要登录后才可以回帖 登录 | 立即注册

本版积分规则

精彩图文
Archiver|手机版|TAG|Sitemap|新帖|专题|联系我们:邮箱: 4kjia.com@gmail.com   

4k家园   ©2019